<?xml version="1.0" standalone="no"?>
<!DOCTYPE svg PUBLIC "-//W3C//DTD SVG 1.1//EN" "http://www.w3.org/Graphics/SVG/1.1/DTD/svg11.dtd" >
<svg xmlns="http://www.w3.org/2000/svg" xmlns:xlink="http://www.w3.org/1999/xlink" version="1.1">
<metadata></metadata>
<defs>
<font id="blackswordregular" horiz-adv-x="956" >
<font-face units-per-em="2048" ascent="1638" descent="-410" />
<missing-glyph horiz-adv-x="518" />
<glyph horiz-adv-x="0" />
<glyph horiz-adv-x="682" />
<glyph horiz-adv-x="0" />
<glyph horiz-adv-x="0" />
<glyph unicode="&#xd;" horiz-adv-x="518" />
<glyph unicode=" "  horiz-adv-x="518" />
<glyph unicode="&#x09;" horiz-adv-x="518" />
<glyph unicode="&#xa0;" horiz-adv-x="518" />
<glyph unicode="!" horiz-adv-x="892" d="M217 55q-8 44 32.5 107.5t86.5 73.5q31 6 83.5 -13t65.5 -47q-29 -4 -67.5 -49.5t-68.5 -89.5t-40 -45q-29 -6 -57.5 14.5t-34.5 48.5zM412 401q0 86 91.5 273.5t211 370t240 321.5t173.5 139q51 0 84.5 -19t63.5 -56q-38 15 -168 -130t-265.5 -334.5t-243 -362.5 t-107.5 -210q0 -10 10 -10q8 0 21.5 7.5t22.5 14t9 5.5q0 -4 -15 -20t-39 -32t-42 -16q-22 0 -34.5 17.5t-12.5 41.5z" />
<glyph unicode="&#x22;" horiz-adv-x="665" d="M492 1251q24 16 116 155.5t92 172.5q0 4 7 4q36 0 91.5 -14.5t55.5 -38.5q0 -31 -72 -101.5t-158 -128t-122 -57.5q-10 0 -10 8zM725 1251q25 16 118 155t93 173q0 4 4 4q39 0 95.5 -14.5t56.5 -38.5q0 -31 -72.5 -101.5t-159 -128t-123.5 -57.5q-12 0 -12 8z" />
<glyph unicode="#" horiz-adv-x="2125" d="M360 362q-2 38 63 74.5t159 61t166.5 39.5t115.5 20q53 97 148 242q-130 -25 -247 -58t-215.5 -67.5t-103.5 -36.5q-29 -9 -40 3t-13 48q-3 43 38 76.5t135.5 61t215.5 48.5t308 46q282 412 405 491q33 19 49 19q58 3 97.5 -19t50.5 -41q-22 8 -182 -177t-207 -259 q29 1 83.5 2.5t96 2.5t69.5 1q3 4 40 49t61.5 73t68.5 79t79 86t75 73.5t74.5 62.5t60.5 32q1 0 4.5 0.5t11 1t19.5 0.5q62 0 99.5 -18.5t39.5 -41.5q-14 1 -86 -55.5t-173 -155t-173 -190.5q92 0 238 -13t254 -29t108 -24q0 -5 -41 -2q-10 0 -225 10.5t-344 6.5l-33 -2 q-68 -76 -229 -291q118 1 268 -17t247.5 -38.5t98.5 -30.5q0 -1 -3 -1h-9.5t-11.5 -1q-255 8 -363 10q-176 0 -297 -16q-103 -139 -207 -312t-188 -329t-96 -176t-21 -29q-6 86 104.5 355t235.5 472q-48 -5 -94 -11.5t-96 -14t-80 -11.5q-53 -75 -162.5 -279t-108.5 -245 q0 -8 4 -10q4 -1 13.5 3t25.5 12t23 11q5 2 7 1t-3 -7q-83 -78 -125 -86q-31 -6 -48.5 12.5t-14.5 55.5q5 54 46 159t70 165.5t84 171.5q-122 -30 -221 -68q-10 -13 14.5 -19t47.5 -6q-60 -21 -117 -24q-53 -3 -98 18t-46 55zM1032 578q24 2 80 6.5t86 5.5q70 4 109 4 q62 97 192 274q-47 -2 -93 -7t-103.5 -13t-92.5 -12q-81 -108 -178 -258z" />
<glyph unicode="$" horiz-adv-x="1499" d="M25 43q0 63 59 137t154 143t200.5 128t212.5 106q8 13 176 287q-102 35 -158.5 79t-56.5 111q0 74 44.5 142t115.5 118t161 90t179 63.5t172 33.5q108 124 161.5 163t92.5 39q68 0 102 -72l1.5 -1.5t0.5 -1.5q-21 1 -68.5 -40t-96.5 -95q129 -34 129 -134 q0 -73 -48.5 -163t-134 -158t-174.5 -68q-26 0 -48.5 20.5t-22.5 53.5q0 23 44 75.5t78 71.5q-47 -71 -49 -84q23 0 68 31.5t88.5 76t76 98.5t32.5 93q0 25 -18.5 40t-45.5 18q-247 -269 -489 -596q186 -58 255 -91q184 -86 198 -219q1 -12 1 -24q0 -114 -80 -219 t-202.5 -179.5t-269 -132t-280.5 -87t-235 -33.5q-30 -57 -59 -113t-40.5 -79t-12.5 -23q-5 0 -5 6q0 66 58 207q-45 1 -88 10.5t-85 29t-67.5 56.5t-25.5 86zM127 51q0 -53 102 -53q59 0 129 12q105 220 252 479q-124 -69 -227.5 -142t-179.5 -155t-76 -141zM436 25 q190 43 395.5 135t349.5 203.5t144 197.5q0 34 -12 62t-45.5 52t-54.5 39t-80.5 35t-80 26.5t-92.5 26.5q-16 5 -24 7q-65 -88 -141 -199q80 23 114 23q28 0 27 -5q0 -1 -2 -1q-33 0 -166 -58q-194 -292 -332 -544zM739 999q0 -71 113 -114q228 352 362 514 q-113 -46 -222.5 -117.5t-181 -149.5t-71.5 -133z" />
<glyph unicode="%" horiz-adv-x="1708" d="M217 954q0 99 60.5 206.5t151.5 190t201 136t204 53.5q72 0 124 -41.5t52 -116.5q0 -45 -21 -100.5t-43.5 -90t-30.5 -34.5q-4 0 6.5 18.5t26 66t15.5 101.5q0 52 -24.5 82.5t-70.5 30.5q-70 0 -159 -56t-162 -135t-123.5 -170t-50.5 -157q0 -51 80 -51q69 0 150 41.5 t138.5 90.5t108 90.5t65.5 41.5q7 0 7 -16q0 -9 -20 -40.5t-53.5 -75.5t-82.5 -91.5t-103.5 -88.5t-120.5 -67.5t-128 -26.5q-85 0 -141 60t-56 149zM289 25q0 65 87 205.5t221.5 306t301 343t321.5 321t286.5 236.5t193.5 93q34 0 73.5 -30.5t55.5 -65.5q-52 6 -220 -124.5 t-373.5 -326t-402.5 -399t-329.5 -366t-132.5 -204.5q0 -18 14 -18q21 0 44.5 8.5t35.5 15t12 5.5q0 -5 -20.5 -20.5t-53.5 -30.5t-61 -15q-21 0 -37 21.5t-16 44.5zM817 90q0 99 60.5 206.5t151 190t200.5 136t205 53.5q71 0 122.5 -41t51.5 -115q0 -46 -20.5 -101.5 t-42 -89.5t-27.5 -34q-5 0 5 18.5t25 65.5t15 100q0 52 -25.5 82.5t-71.5 30.5q-70 0 -159 -56t-162 -135t-123.5 -170t-50.5 -157q0 -51 80 -51q69 0 150 41.5t139 90.5t109 90.5t67 41.5q6 0 6 -15q0 -12 -27 -54t-77.5 -98.5t-111.5 -109.5t-140 -90t-152 -37 q-87 0 -142 59t-55 148z" />
<glyph unicode="&#x26;" horiz-adv-x="2271" d="M10 31q-2 73 44 156t122 158t171 147.5t194 130t187.5 99.5t154.5 62q-44 2 -95 16.5t-101 41t-83.5 71t-34.5 97.5q-3 101 72.5 208.5t199.5 196t272.5 160t302.5 111.5t278 40q214 0 237 -149q12 -80 -42 -171t-140 -161t-187 -117t-180 -47q-25 0 -59 32t-35 79 q0 20 20.5 42t38 33.5t35.5 20.5q-6 -8 -13 -25t-7 -26q0 -14 14 -14q32 0 108.5 34.5t158.5 85.5t149 118.5t76 123.5q7 53 -39.5 78t-112.5 25q-105 0 -273 -68.5t-322.5 -165.5t-266 -214.5t-109.5 -205.5q1 -48 56.5 -86t132.5 -56t156 -18q22 0 62 6l40 5q5 -3 0 -20 t-18 -37t-21 -21q-123 -16 -282.5 -95.5t-297 -183t-239.5 -221t-119 -205.5q-20 -82 30 -118t128 -31q127 9 282.5 71.5t294.5 149t285 197.5t249.5 202.5t192.5 178.5q-96 -19 -213 -56l-2 -12q-14 -6 -41 -12t-35 -6q-22 0 -64 16t-42 37q-3 7 12 37q32 42 189.5 82.5 t328.5 52.5q192 209 263 209q35 0 74.5 -23t56.5 -53q-43 -3 -179 -129q160 -4 294.5 -23.5t192.5 -37.5t58 -25h-10q-15 0 -30.5 0.5t-64 1t-112.5 0.5q-273 0 -434 -20q-220 -250 -399.5 -493t-278.5 -407t-167.5 -293.5t-98 -191t-37.5 -61.5q-4 0 -4 6q-2 60 76.5 251.5 t232.5 469.5t326 512q-89 -87 -188.5 -176t-246 -202.5t-282.5 -198.5t-287 -144t-270 -58q-68 0 -130.5 23t-107.5 76t-47 127z" />
<glyph unicode="'" horiz-adv-x="628" d="M453 965q28 15 139 163t117 189q0 2 4 2q34 -4 88.5 -32.5t50.5 -55.5q-4 -38 -84.5 -108t-173.5 -122.5t-129 -46.5q-7 1 -10.5 4.5t-1.5 6.5z" />
<glyph unicode="(" horiz-adv-x="935" d="M217 106q0 170 47 353t123 342.5t174.5 312t197 269t195.5 204.5q122 110 205 156q60 29 86 24q77 -11 130 -83q25 -34 20 -42q-2 -3 -9 3q-46 34 -185 -75q-29 -23 -89 -74q-11 -9 -16 -13q-66 -56 -137 -127.5t-151.5 -170t-154.5 -207t-142.5 -241t-119 -268 t-80.5 -291.5t-30 -309q0 -42 2 -83q2 -24 -4 -24q-12 0 -26 46.5t-25 128.5t-11 169z" />
<glyph unicode=")" horiz-adv-x="929" d="M-158 -289q32 12 91 53.5t138 107.5t167.5 157t177.5 196t169.5 231.5t141.5 256t96 277t31 288.5q-4 106 -41 256q-51 149 -106 149q-17 -1 -8 9q19 19 74 28q44 7 83 -2q29 -8 49 -24q61 -45 89 -161.5t30 -232.5q5 -160 -34.5 -323t-108.5 -303t-161.5 -273 t-194.5 -239.5t-205.5 -195t-196 -146t-166 -86.5t-115.5 -23z" />
<glyph unicode="*" horiz-adv-x="1232" d="M369 1163q0 48 63 62.5t358 39.5l33 3q-21 45 -53.5 139t-32.5 113q0 34 28.5 60t63.5 26q17 0 25 -23.5t28.5 -105.5t51.5 -168q174 116 345 210.5t268 136.5t120 42q2 -2 -46.5 -37.5t-123.5 -88.5t-153.5 -108.5t-149 -107.5t-98.5 -76q434 0 434 -35q0 -3 -58 -11 t-211.5 -28.5t-279.5 -38.5q50 -176 156 -440q-41 35 -123 163t-121 228q-80 -62 -146.5 -116.5t-105 -88.5t-69 -61.5t-44.5 -41.5t-25 -23.5t-17 -12t-15 -2.5q-21 0 -42 31t-21 59q0 14 17 36t51 52t65 55.5t78 63t71 57.5q-218 -28 -239 -28q-28 0 -55 20t-27 45z" />
<glyph unicode="+" horiz-adv-x="1419" d="M340 502q0 63 475 127q55 85 97.5 146.5t96 132.5t94.5 109t66 38q33 0 66 -15t33 -34q0 -12 -51 -72.5t-127 -149.5t-115 -145q17 0 47.5 1t44.5 1q134 0 237.5 -10t144 -20.5t40.5 -16.5q0 -7 -120 -24.5t-283 -42.5t-236 -44q-101 -116 -189 -234t-127 -177l-38 -58 q-8 0 16.5 64t78 172t114.5 205q-35 -6 -139 -33t-130 -27q-36 0 -66 37t-30 70z" />
<glyph unicode="," horiz-adv-x="638" d="M-84 -223q16 7 90.5 92.5t144.5 178.5t70 116q0 4 8 4q27 0 63 -35t36 -84q0 -33 -78.5 -103t-176.5 -128t-147 -58q-21 0 -10 17z" />
<glyph unicode="-" horiz-adv-x="1136" d="M381 530q0 35 121 50.5t250 15.5q83 0 189 -13.5t178.5 -32t72.5 -30.5q0 -6 -4 -6q-155 0 -326.5 -24t-282 -48t-118.5 -24q-33 0 -56.5 38.5t-23.5 73.5z" />
<glyph unicode="." horiz-adv-x="571" d="M129 68q-3 43 45.5 100t93.5 61q33 2 82.5 -23.5t59.5 -53.5q-24 -1 -57.5 -28t-60 -59.5t-50.5 -59.5t-31 -28q-29 -1 -54.5 30t-27.5 61z" />
<glyph unicode="/" horiz-adv-x="880" d="M180 -139q0 75 80 247t203.5 378t275 428.5t291.5 403.5t256 298t166 117q91 0 156 -76q-41 19 -193.5 -141.5t-343.5 -411t-375 -512.5t-309 -472.5t-125 -264.5q0 -8 5 -15.5t12 -7.5q12 0 23 2t22.5 7.5t18.5 9.5t19.5 12t18.5 12q-29 -34 -70.5 -63t-68.5 -29 q-24 0 -43 23t-19 55z" />
<glyph unicode="0" horiz-adv-x="1353" d="M-33 156q-2 166 66.5 349t179.5 343t252.5 307t284.5 251.5t276.5 167t226.5 62.5q34 0 69 -31t56 -71q109 -16 167.5 -99.5t58.5 -197.5q0 -128 -58.5 -286.5t-155.5 -312.5t-229 -301.5t-273.5 -259t-296 -179.5t-288.5 -68q-152 0 -243.5 86t-92.5 240zM84 70 q0 -181 174 -181q89 0 217.5 72.5t262.5 190t268.5 271.5t239 310.5t170 314.5t65.5 277q0 143 -150 143q-114 0 -254.5 -64.5t-277 -171t-267 -250t-229.5 -296t-159 -315.5t-60 -301z" />
<glyph unicode="1" horiz-adv-x="964" d="M82 545q151 105 197 141q153 121 307.5 269.5t262.5 267t201.5 222.5t157 162t97.5 58h12q73 -2 133 -66h-18q-82 -13 -254 -228t-377 -548q-436 -710 -477 -952q-5 -25 -6 -45.5t9.5 -34t32.5 -16.5q-65 -24 -129 26q-52 40 -38 136q20 119 90 288t170 344 q121 214 204 340q-194 -167 -350.5 -269.5t-222.5 -102.5z" />
<glyph unicode="2" horiz-adv-x="1363" d="M-385.5 -125.5q-1.5 37.5 12.5 43.5q87 0 263 94.5t381.5 242t424 330.5t395.5 355t290.5 321.5t113.5 225.5q0 71 -31.5 95t-95.5 24q-98 0 -244 -71.5t-271 -166.5t-215.5 -191t-90.5 -143q0 -16 9 -23.5t25 -7t32.5 3.5t36.5 11t31.5 13t23.5 11q-21 -22 -71.5 -53 t-94.5 -45q-55 -16 -103.5 8t-48.5 82q0 36 27 92q68 127 227.5 252.5t352 205t347.5 79.5q240 0 240 -221q0 -95 -57 -211.5t-148 -229.5t-212 -232.5t-243 -222t-246 -197t-215.5 -157.5t-158.5 -104q174 45 408 45q17 0 43 -1t36 -1q108 -4 203 -26.5t153 -52t92 -57 t38 -46.5q-1 -1 -15 9.5t-44.5 27.5t-72.5 33t-111 28t-148 12q-188 0 -376.5 -32t-326.5 -77.5t-247.5 -90.5t-175 -77t-74.5 -32q-25 0 -46 43.5t-22.5 81z" />
<glyph unicode="3" horiz-adv-x="1325" d="M-205 6q5 79 60.5 167t137 161t173 133.5t173.5 94.5t132 34q7 0 8 -3q-1 -2 -4 -3q-37 0 -134.5 -57.5t-201 -138t-183 -180.5t-79.5 -173q0 -53 39 -72.5t121 -19.5q130 0 288.5 60.5t300.5 156t262.5 204t191.5 213t71 173.5q0 67 -47.5 104t-114.5 37 q-94 0 -188 -24.5t-164 -49t-107 -24.5t-56 52q-18 48 -3 76q7 11 18 11q82 0 239 67.5t309 160t273.5 195t137.5 165.5q12 53 -26.5 78.5t-100.5 25.5q-88 0 -182.5 -31.5t-169.5 -79t-137 -99.5t-96 -97t-34 -68q0 -30 47 -24q57 9 101 53q-15 -38 -64.5 -72t-103.5 -41 q-43 -6 -78 24t-35 77q0 99 110.5 197t275 158.5t317.5 60.5q104 0 167.5 -47.5t63.5 -149.5q0 -264 -561 -549q153 -1 239.5 -69.5t86.5 -180.5q0 -104 -59.5 -215t-157 -206.5t-223.5 -182.5t-257.5 -149t-261 -98t-231.5 -36q-43 0 -77 3t-76 15t-69.5 32.5t-45.5 59 t-15 91.5z" />
<glyph unicode="4" horiz-adv-x="1288" d="M-74 496q89 58 249 165.5t411.5 281.5t484 349t348.5 285q112 106 152 111q45 3 90 -17t70 -49q-26 11 -93 -49q-104 -102 -245 -291q-42 -55 -90 -129t-92.5 -150t-78.5 -135.5t-67 -120.5t-39 -71q25 2 78 2q106 0 199 -14.5t118 -34.5q-60 14 -202 14q-133 0 -211 -12 q-110 -187 -212.5 -425t-123.5 -364q-10 -38 -2.5 -66t39.5 -32q-63 -23 -131 27q-53 41 -39 137q19 116 100.5 338t146.5 348q-178 -33 -322.5 -68t-224 -61t-134 -47t-78 -32t-29.5 -11t-29.5 26t-39.5 56t-3 39zM287 563q207 63 528 92q45 101 189.5 340.5t248.5 368.5 q-818 -718 -966 -801z" />
<glyph unicode="5" horiz-adv-x="1343" d="M-219 -14q0 81 65.5 175t166 175t217 153.5t222.5 120t179 64.5q38 9 47 2q1 -2 0 -4q-2 -1 -10.5 -3t-10.5 -3q-39 -10 -109.5 -45t-155.5 -86.5t-172.5 -118t-160 -134.5t-118 -140.5t-45.5 -131.5q0 -73 129 -73q128 0 269 41.5t268 110t244 160t202 189t135.5 200.5 t50.5 191q0 95 -64 160.5t-180 65.5q-80 -3 -164.5 -30t-137.5 -57t-101 -60.5t-55 -33.5q-59 -4 -108 48q-30 31 -23 44q3 3 6 3q36 0 166.5 146t245 302.5t114.5 186.5q0 13 7 18t15.5 3t16.5 -7q1 -1 12.5 -10t20 -14t26 -15t38 -16t49 -13t66 -11t81.5 -5q74 0 140.5 10 t113 25.5t80 34.5t48 38.5t9.5 36.5q40 -9 82.5 -54t42.5 -85q0 -38 -114 -81.5t-234 -43.5q-281 0 -406 107q-137 -230 -295 -459q123 39 230 39q173 0 290 -95.5t117 -250.5q0 -120 -56.5 -243t-151.5 -228.5t-222 -199t-265.5 -159t-285 -103.5t-276.5 -38 q-119 0 -205 53.5t-86 147.5z" />
<glyph unicode="6" horiz-adv-x="1249" d="M-100 147q-4 144 63.5 318t181.5 338.5t266.5 320.5t312.5 272.5t325.5 187.5t300.5 71q93 0 160.5 -47.5t70.5 -137.5q2 -86 -48.5 -164t-123 -121.5t-139.5 -43.5q-35 0 -84.5 50.5t-52.5 86.5q-3 23 4 33q0 -9 13 -20t26 -11q66 0 149 27t148 79.5t63 110.5 q-3 113 -176 90q-116 -17 -265.5 -101.5t-296.5 -210t-288.5 -286.5t-247 -324t-166 -328.5t-51.5 -293.5q5 -67 40.5 -106t109.5 -48q85 -11 216 59.5t251 179t212 243t103 241.5q5 47 -10 80.5t-45 51t-63 25t-71 7.5q-92 0 -192.5 -39t-177.5 -93t-141 -108.5t-98 -88 t-34 -29.5q-1 15 26 51t74 83.5t116 98t145.5 92.5t170.5 69.5t183 27.5q79 0 142.5 -25t105.5 -86t39 -151q-3 -108 -67 -222.5t-167 -210.5t-225 -172t-252.5 -116t-238.5 -33q-137 8 -215.5 86t-81.5 237z" />
<glyph unicode="7" horiz-adv-x="1107" d="M43 -80q39 233 272 586q86 128 275 358q-162 -31 -257.5 -87t-99.5 -97q-1 -12 -28 2q-43 23 -55 68q-5 16 -3 34q14 148 551 199q271 292 461 430q-138 -27 -239 -27q-89 0 -161 16t-110.5 38t-64 46.5t-33.5 39t-8 18.5t4 4l10 -10q10 -11 31.5 -25.5t52.5 -29t84 -25 t115 -10.5q117 0 324.5 47.5t367.5 107t158 89.5q14 0 28.5 -38t21 -76t1.5 -38q-29 0 -138.5 -62.5t-290.5 -195.5t-356 -291q2 0 226 -10q129 -8 238 -33.5t157 -47t47 -30.5l-24 7q-23 7 -96 20t-171 21q-62 6 -145 6q-124 0 -330 -23q-117 -117 -219 -237.5 t-196.5 -255.5t-165 -279.5t-105.5 -282.5q-12 -36 -6.5 -64.5t39.5 -33.5q-75 -25 -127.5 27.5t-34.5 144.5z" />
<glyph unicode="8" horiz-adv-x="1202" d="M-100 72q-8 85 17.5 169.5t73.5 156t119.5 140.5t147 124t164 107t161 88t148.5 69q-24 90 -33 182q-12 140 39 267t155 210.5t238 97.5q105 12 160 -16t60 -74q5 -57 -22 -75q-10 -5 -13 0q-3 41 -43.5 58.5t-95.5 10.5q-104 -13 -180.5 -83t-109.5 -166t-24 -197 q4 -47 29 -140q131 52 235.5 121t165 133t99.5 127.5t51.5 107t9.5 69.5q-2 11 4 13q3 1 5 -5q1 -2 1 -6q7 -62 -7 -123.5t-40.5 -112.5t-72.5 -104.5t-90.5 -94.5t-108 -87.5t-111.5 -78t-114 -71.5q3 -13 14.5 -53t16 -56t13.5 -51.5t13.5 -57t11 -52.5t10.5 -59.5 t7 -57.5q4 -46 4 -70q0 -236 -170.5 -415.5t-448.5 -223.5q-47 -8 -102 -8q-156 0 -264 77.5t-123 209.5zM12 39q10 -101 69.5 -143.5t160.5 -42.5q19 0 69 4q78 8 172.5 62t176 134.5t133 191t41.5 216.5q-14 139 -74 342q-38 -19 -92 -50.5t-129.5 -81t-148.5 -104.5 t-145.5 -122.5t-126 -133t-83.5 -137.5t-23 -135z" />
<glyph unicode="9" horiz-adv-x="1325" d="M-158 -78q-14 81 35.5 180t130 182t166.5 147.5t150 90.5q6 3 7.5 0t-3.5 -6q-45 -26 -115.5 -87.5t-141.5 -140t-115.5 -166.5t-31.5 -151q9 -43 53 -64t102 -19t116 22q198 66 395.5 228t356.5 372t276 448q-192 -193 -399 -309.5t-382 -120.5q-89 -2 -151 47.5 t-66 141.5q-6 97 47 208.5t144 214.5t212 200t248.5 169.5t256.5 119t233 52.5q28 4 70.5 0.5t82 -10.5t68.5 -30.5t31 -59.5q1 -33 -21.5 -64.5t-54.5 -50.5q35 56 35 80q0 27 -33 39t-67 10q-95 -6 -219 -55t-247 -124.5t-243.5 -172.5t-212.5 -194.5t-148.5 -195.5 t-56.5 -171q0 -57 46.5 -77.5t117.5 -10.5q96 13 205 71t204.5 139t185.5 176.5t153.5 184.5t101.5 162t37 109q-1 41 48 27q46 -13 79 -50q16 -18 16 -31q-1 -48 -22 -126t-61 -178t-95.5 -213t-131 -232.5t-161.5 -234.5t-192.5 -220.5t-220 -189t-247 -141t-270.5 -76.5 q-36 -7 -84.5 0t-93.5 21t-80 48.5t-43 81.5z" />
<glyph unicode=":" horiz-adv-x="946" d="M279 154q-3 45 45.5 102t95.5 61q33 0 82 -25.5t57 -53.5q-23 -1 -56 -27.5t-59.5 -58.5t-50.5 -58.5t-31 -27.5q-29 -1 -54.5 28.5t-28.5 59.5zM504 520q-3 43 45.5 100.5t95.5 61.5q34 2 82 -24t57 -54q-30 -1 -73 -44t-78.5 -86t-44.5 -44q-29 -1 -55 29t-29 61z" />
<glyph unicode=";" horiz-adv-x="792" d="M12 -242q28 12 167.5 182.5t139.5 204.5q0 5 9 5q24 0 59 -35t35 -84q0 -33 -77 -103t-175 -128t-150 -58q-13 0 -8 16zM434 360q-3 45 45.5 102t95.5 60q34 2 82.5 -24t57.5 -54q-29 -1 -72.5 -43.5t-79.5 -85t-45 -43.5q-29 -1 -55 28.5t-29 59.5z" />
<glyph unicode="&#x3c;" horiz-adv-x="1572" d="M201 303q-8 0 8.5 40t40.5 80t35 40q65 0 230 74t328 165.5t290 172t127 94.5q0 7 13 13.5t32 6.5q47 0 97 -20.5t50 -50.5q0 -36 -181 -135.5t-444 -223.5t-268 -127q123 -21 238 -67t194.5 -99t140.5 -108t90 -96.5t29 -61.5q0 -4 -4 -4q-138 134 -389.5 223.5 t-521.5 89.5z" />
<glyph unicode="=" horiz-adv-x="1480" d="M276 309q0 34 187 64t325 30q128 0 257.5 -10t209.5 -25.5t80 -29.5q0 -4 -6 -4q-110 0 -334.5 -34t-410.5 -67.5t-203 -33.5q-41 0 -73 38t-32 72zM401 643q0 34 157 49t325 15q109 0 247.5 -13.5t234 -31.5t95.5 -31q0 -6 -6 -6q-204 0 -428.5 -24.5t-368.5 -48.5 t-155 -24q-42 0 -71.5 39.5t-29.5 75.5z" />
<glyph unicode="&#x3e;" horiz-adv-x="1476" d="M57 -53q0 19 49.5 70t146 123.5t218.5 147.5t288.5 149.5t334.5 123.5q-153 95 -220 158q-92 86 -92 155q0 49 48 113q34 44 47 36q4 -3 4 -11q0 -56 64.5 -132.5t147.5 -138t158.5 -104.5t100.5 -43t6 -60q-18 -59 -43 -78q-5 -5 -10 -5q-98 0 -219 -28t-237 -72.5 t-233 -98.5t-215.5 -108t-175 -98.5t-121.5 -72.5l-45 -28q-2 0 -2 2z" />
<glyph unicode="?" horiz-adv-x="1443" d="M207 68q-3 43 55 109.5t103 70.5q33 2 82.5 -24t56.5 -54q-23 -1 -58.5 -31t-65 -65.5t-56 -65.5t-33.5 -31q-30 -1 -55.5 29.5t-28.5 61.5zM342 457q5 70 80 146.5t191.5 147.5t256.5 145t280 150t256.5 150t192 156t80.5 159q4 69 -58.5 103.5t-166.5 32.5 q-154 -3 -338.5 -92t-319.5 -212t-171 -227q22 0 157 73.5t140 86.5q-7 -22 -75.5 -82t-151.5 -113t-120 -53q-36 0 -74 38.5t-30 84.5q22 116 117.5 224.5t226 183.5t279 121.5t278.5 48.5q115 1 198.5 -23t131 -80.5t41.5 -140.5q-6 -87 -80 -186t-187 -189.5t-249 -180.5 t-271 -168.5t-247 -144.5t-182 -117.5t-72 -78.5q0 -19 41 -19q10 0 25 5t24.5 9t9.5 3q-7 -16 -46.5 -38t-74.5 -22q-43 -1 -69 29t-23 70z" />
<glyph unicode="@" horiz-adv-x="2502" d="M180 201q6 153 70 307.5t167.5 285.5t240.5 246.5t285.5 196t306.5 126.5t300 46q88 0 168 -12t156.5 -42t132 -75.5t89.5 -117t34 -161.5q0 -109 -43 -224.5t-114 -214t-162 -187.5t-186.5 -151.5t-189 -99t-167.5 -36.5q-64 0 -98.5 35.5t-34.5 71.5q0 70 38.5 158 t100.5 163q-32 -31 -68.5 -65t-111 -97.5t-138 -110.5t-132.5 -83.5t-111 -36.5q-33 0 -57.5 41t-24.5 80q0 73 56 162.5t146 170.5t194 150.5t210 110.5t184 41q41 0 78.5 -11t66.5 -40.5t29 -73.5q0 -47 -36 -92q-2 -2 -5 1q-1 2 0 3q21 42 21 67q0 43 -26 67.5t-70 24.5 q-111 0 -258 -100t-265.5 -241t-164.5 -265q97 42 242.5 142t223.5 180q2 2 27 27.5t44.5 45t46 44t48 38t33.5 13.5q34 0 70.5 -25t36.5 -51q0 -15 -46.5 -72.5t-102 -123t-102 -144.5t-46.5 -131q0 -35 32 -35q86 0 185.5 59.5t187.5 158t161 215t116 241.5t43 227 q0 86 -35.5 153.5t-97 108.5t-139.5 61.5t-169 20.5q-129 0 -271.5 -49t-274.5 -133t-254 -200.5t-213 -246.5t-147 -276.5t-60 -284.5q-4 -112 36.5 -199.5t114.5 -142t171.5 -82.5t213.5 -28q167 0 359 46t366 119t345.5 161.5t309.5 175t245.5 158t166 112t58.5 35.5 q0 -10 -62.5 -64.5t-175 -138t-257 -180t-320 -192.5t-351.5 -174.5t-365 -127.5t-347 -49q-147 0 -268 36t-211.5 107t-138 185.5t-40.5 261.5z" />
<glyph unicode="A" horiz-adv-x="2025" d="M-299 -262q0 60 26.5 99.5t55.5 39.5q-13 -11 -24 -34t-11 -42q0 -64 41 -94.5t111 -30.5q90 0 195.5 35.5t215 101.5t211.5 139t215 170.5t194.5 171t180 166t143.5 132.5q-155 -17 -291 -45.5t-225 -58.5t-153.5 -61t-93 -54.5t-27.5 -36.5q-1 -21 -33 -7 q-42 19 -68 65q-16 29 -16 58q0 38 52 72q54 35 146.5 59t200.5 43.5t227.5 31.5t212.5 18.5t171 9.5h2q146 146 473.5 482.5t423.5 437.5q59 62 94.5 88t69.5 26q45 0 92.5 -34t58.5 -56q-29 -4 -48.5 -17.5t-49.5 -43.5q-98 -104 -258.5 -374.5t-273.5 -545.5 q107 -14 221.5 -42.5t138.5 -49.5q0 -1 -51.5 8t-147.5 22t-180 19h-2q-81 -169 -170 -428q-81 -235 -81 -332q0 -10 1 -18q2 -25 29 -25t57.5 8t69.5 23.5t49 18.5q-114 -105 -211 -105q-46 0 -93.5 39t-51.5 80q-3 22 -3 49q0 76 26 186q35 148 81.5 271t101.5 243h-77 q-168 0 -283 -12q-54 -50 -172 -171t-224 -230t-250.5 -238.5t-269 -222.5t-261 -156t-244.5 -63q-94 0 -169 56.5t-75 158.5zM1456 688q145 0 295 -12q75 163 209 410t215 358q-24 -21 -719 -756z" />
<glyph unicode="B" horiz-adv-x="2504" d="M-6 -207q5 81 80 173t183 168t226.5 141t215.5 104t145 45q1 -1 -3 -3q-10 -4 -12 -5q-72 -33 -162 -82t-197 -118.5t-194.5 -139.5t-148 -147.5t-64.5 -139.5q-1 -27 20.5 -45.5t61 -28t64 -13t57.5 -5.5q25 -2 78 -2q165 0 383.5 43.5t438.5 115t436 167t383.5 195.5 t274.5 205t114 191v9q0 43 -32 77q-36 38 -99 59t-124.5 32.5t-125.5 15.5q-27 2 -78 2q-170 0 -377 -49q-10 -12 -44 -50.5t-56 -63t-59 -67t-62.5 -73.5t-58 -70.5t-54 -68.5t-41 -58t-29.5 -49.5t-10 -32.5q0 -10 17 -10h3q20 1 62 13q45 14 70 24q-33 -32 -90.5 -66 t-87.5 -34q-64 0 -64 63v6q2 84 148.5 315t361 482t381.5 371q48 32 78 33q3 0 6 -1q80 -7 140 -75q27 -30 23 -36q-2 -2 -9 3q-10 5 -21 5q-29 0 -74 -30q-68 -49 -143.5 -119.5t-132.5 -131t-139 -151.5q-17 -19 -25 -28q133 44 283 109.5t287.5 139t232.5 151t106 135.5 q2 9 2 19q1 41 -33 76q-40 43 -108.5 67t-130.5 37t-110 16q-26 2 -53 2q-110 0 -238 -26q-160 -32 -303.5 -92t-266.5 -132t-197 -148.5t-77 -136.5q-1 -8 -1 -15q0 -70 71 -85q0 -1 -6 -3.5t-17 -4.5t-22 -2q-75 -1 -116 43q-34 36 -34 92q0 12 2 26q8 67 64.5 143 t158.5 148.5t232.5 131t302 94.5t352.5 36q35 0 113 -4q69 -4 137 -19t135.5 -43.5t117.5 -68.5t80 -98q26 -52 26 -111q0 -8 -1 -16q-4 -68 -43.5 -130.5t-103 -110t-133.5 -86t-148 -67t-132 -45t-99 -26.5q3 1 12 1q18 0 58 -3q58 -5 117.5 -16.5t124.5 -36t114.5 -57.5 t80.5 -85q29 -49 29 -107v-7q-3 -99 -69.5 -198.5t-178 -186t-260 -168.5t-315 -148t-344 -121.5t-346.5 -93t-321.5 -58t-270.5 -20.5q-54 0 -115 7q-65 8 -115.5 24t-90.5 44q-38 27 -58 70q-16 36 -17 80q0 9 1 19z" />
<glyph unicode="C" horiz-adv-x="1785" d="M66 -14q-1 17 -1 34q0 116 41 244q47 148 135.5 289.5t212.5 283.5t267 265.5t302 231t314.5 184t308 120t279.5 43.5q139 0 221 -59t82 -174q0 -98 -88.5 -215t-213 -196t-222.5 -79q-38 0 -62 40.5t-24 91.5q0 33 49.5 86t67.5 53q1 0 -12.5 -19.5t-25.5 -42.5t-7 -30 q52 0 131 31.5t152.5 79.5t126 113t52.5 124q0 69 -55 107t-151 38q-153 0 -347 -82.5t-382 -215.5t-369 -308t-315 -354.5t-211 -360.5q-67 -158 -67 -284q0 -18 1 -35q10 -120 89 -169.5t210 -49.5q185 0 449 104t532 269t516 366q3 3 13 -5q8 -5 3 -7 q-111 -108 -259 -226t-324.5 -233t-350.5 -206t-346 -146q-164 -52 -288 -52h-13q-85 2 -157 22t-130.5 60.5t-94 109t-39.5 159.5z" />
<glyph unicode="D" horiz-adv-x="2486" d="M2 -209q0 110 126 246.5t325 257t417 197.5q0 -2 -12 -11q-129 -60 -260 -140.5t-245.5 -171t-186.5 -186t-72 -171.5q0 -31 22.5 -53t59.5 -32t71 -14t70 -4q168 0 361 36.5t384.5 100.5t384.5 155t364.5 197t321 229.5t257 249t169.5 259.5t62 258q0 95 -54 174 t-142.5 130t-197.5 79.5t-224 30.5h-16q-167 0 -343 -40q-186 -42 -336.5 -109.5t-273.5 -147.5t-191.5 -160.5t-68.5 -140.5q0 -84 66 -123q-68 0 -119 55.5t-51 128.5q0 90 68.5 180.5t187 165t268 133.5t322 91.5t337.5 33.5h10q409 0 647 -162q234 -159 234 -432v-16 q-4 -169 -109 -350.5t-280 -344t-412 -309.5t-496.5 -253.5t-543 -169t-541.5 -62.5q-55 0 -109.5 8.5t-115 29.5t-98 66.5t-37.5 110.5zM1071 174q0 106 226 453.5t446 589.5q35 40 72 77.5t97 81t97 43.5q24 0 47 -10q66 -24 107 -80q18 -25 9 -24q-2 0 -7 4q-11 6 -25 6 q-40 0 -104 -51q-43 -36 -154 -152q-235 -246 -483 -561.5t-248 -378.5q58 0 119 31q-6 -22 -59 -56t-83 -34q-22 0 -39.5 16t-17.5 45z" />
<glyph unicode="E" horiz-adv-x="1685" d="M10 -117q12 100 77 203t161 189.5t213 164t233.5 133t221.5 90.5t178 42q-34 4 -76 16.5t-90.5 38t-86.5 59t-60 83.5q-17 38 -17 79q0 13 2 27q17 130 129.5 260t267 223.5t329.5 152t316 58.5q50 0 90.5 -4.5t85 -20t73.5 -40.5t47 -69q15 -38 14 -87v-17 q-6 -113 -101 -231t-227 -192t-244 -74q-34 1 -62 29q-26 26 -26 53v6q1 29 55 76.5t91 60.5q-35 -35 -53 -75q-9 -19 -1 -19q25 0 84 24.5t131.5 68t140.5 95.5q68 50 114 112q49 64 48 119q0 39 -20 67q-21 30 -58 43t-72.5 18.5t-76.5 5.5q-98 0 -223 -47t-240 -122 t-214 -160t-159 -169q-61 -85 -61 -144q0 -63 46 -109t119 -68t139.5 -31.5t129.5 -9.5q13 0 -6 -33q-27 -47 -65 -62q-11 -4 -21 -4q-91 0 -210 -41.5t-236.5 -108t-233 -154t-203.5 -176t-143.5 -176.5t-56.5 -153v-6q0 -59 40 -95q42 -38 128 -48q23 -3 48 -2 q103 0 244 42q176 54 358.5 145.5t376 209.5t349 227.5t272.5 204.5q3 0 5 -7.5t-1 -10.5q-83 -81 -219.5 -192.5t-332 -249t-390.5 -250.5t-402 -189q-199 -73 -348 -72h-12q-149 3 -237 88q-75 73 -74 171q0 16 2 34z" />
<glyph unicode="F" horiz-adv-x="1527" d="M213 1222q107 118 292.5 206.5t428 153t525 97.5t575.5 33q313 0 671 -59.5t484 -124.5q21 -10 11.5 -13.5t-22.5 1.5q-34 12 -187 37t-413 50t-485 25q-231 0 -453 -26t-402.5 -70t-341 -102t-279 -122.5t-204.5 -130t-129.5 -126.5t-43.5 -111q0 -37 23 -70t59 -55.5 t68 -37.5t62 -25l31 -11q-2 -2 -10 -2q-57 0 -116.5 12t-119 37t-97.5 73q-37 47 -36 109q0 132 109 252zM485 481v9q1 51 55 99q60 52 162 90.5t212.5 66.5t230.5 47q228 312 471 542q153 140 215 140q56 0 107.5 -47t58.5 -109q-18 29 -55 29q-44 0 -145 -87.5 t-236 -238.5q-67 -74 -168 -201q102 4 143 4q65 0 123.5 -3t101 -8t78 -11.5t58 -12.5t37.5 -11.5t20.5 -9t3.5 -3.5q-3 -1 -24 2t-66.5 6.5t-100.5 3.5q-117 0 -227 -12q-93 -10 -217 -31q-263 -331 -460 -645t-197 -414q0 -22 16 -22q12 0 23 2t23 7.5t18.5 9t21 12.5 t18.5 12q-30 -35 -71 -64.5t-68 -29.5q-24 0 -43.5 24t-19.5 56q0 147 133.5 420t339.5 569q-218 -64 -360 -144q-136 -77 -136 -134q0 -25 -26 1q-38 38 -48 77z" />
<glyph unicode="G" horiz-adv-x="2013" d="M61 -10v5q0 138 54 289q55 154 150.5 299t227.5 288.5t281.5 267t315.5 229.5t327 181.5t318.5 118t287.5 42.5q41 0 84.5 -10t86 -31.5t69.5 -62t27 -93.5q0 -84 -49.5 -177t-124 -165t-167 -119.5t-173.5 -47.5q-33 0 -66 31.5t-33 56.5q0 34 44 83t91 70 q-12 -14 -37.5 -57t-17.5 -43q54 0 130 37t145 92.5t117.5 128t48.5 135.5t-54.5 97t-128.5 34q-137 0 -323 -79t-377 -207.5t-380.5 -301t-338 -351.5t-244.5 -367t-104 -340q-1 -12 -1 -23q0 -83 45 -130q42 -44 140 -44q20 0 43 2q107 10 244 64.5t281.5 142t285.5 184.5 t284 211.5t246 201.5t201 175q-199 -20 -419.5 -73t-371.5 -117.5t-151 -112.5q0 -12 -22 11q-43 44 -51 97q-1 7 -1 15q0 63 125.5 115t299.5 80t321 42.5t225 14.5q111 0 216.5 -18t164.5 -40t64 -39q-67 16 -163 26q-65 7 -100 7q-18 0 -28 -2q72 -13 110 -77 q21 -33 12 -41q-3 -4 -10 3q-11 9 -28 9q-44 0 -125 -60q-138 -101 -276.5 -251.5t-246 -306t-188 -298.5t-125.5 -254q-28 -68 -42.5 -130t-14.5 -91q0 -8 3 -12.5t3 -5.5q0 -9 -10 -9q-16 0 -30.5 19t-14.5 47q0 113 40.5 255.5t104.5 277.5t138 255.5t147 208.5 q-788 -632 -1180 -655q-15 -1 -30 -1q-131 0 -211 72q-89 81 -91 222z" />
<glyph unicode="H" horiz-adv-x="2267" d="M84 655q0 83 76 194q76 112 201 225.5t291.5 225.5t338.5 198t349.5 140.5t318.5 55.5h12q303 0 305 -203q0 -76 -41.5 -178.5t-119.5 -223.5t-137.5 -204t-147.5 -197q115 8 258 8q135 0 258 -8q322 512 586 801q103 109 186 166q53 33 82 33q79 0 139 -68 q28 -32 25 -43q-2 -4 -10 2q-10 7 -24 7q-50 0 -146 -89q-254 -243 -650 -827q106 -12 194.5 -26.5t134.5 -26t46 -17.5q-16 0 -72.5 6t-147.5 14t-181 11q-209 -318 -342 -567q-129 -242 -129 -327v-5q0 -12 5 -18t15 -5q20 2 37 9t40 22t32 20q-33 -38 -75.5 -71.5 t-70.5 -34.5q-24 -2 -45 22.5t-24 57.5v17q-1 129 97 365q104 252 267 519q-202 -3 -561 -43q-241 -307 -420 -603q-178 -294 -178 -400v-1q0 -43 41 -49q-15 -6 -35 -6h-4q-34 1 -58 33q-26 34 -26 88q0 126 118.5 370t328.5 541q-169 -28 -327 -77t-246 -93 q-87 -44 -87 -66v-1q0 -14 -18 1q-33 25 -41 74l-2 21q0 28 22 54t64 46.5t91 39t114.5 33.5t121 26t125 21.5t111.5 16t95 12t63 7.5q101 138 172 237.5t163 238t141 238.5q48 98 48 148v2q-1 55 -45 80q-41 23 -101 23h-10q-125 -2 -272.5 -53t-284.5 -132.5t-273 -182 t-247 -203.5t-197.5 -194t-134 -158t-47.5 -91q0 -33 35 -33q24 0 54.5 8.5t43.5 20.5q0 -17 -48.5 -49.5t-98.5 -32.5h-7q-52 1 -82 27q-32 28 -32 81z" />
<glyph unicode="I" horiz-adv-x="1646" d="M70 383q0 109 90 255q91 147 239.5 294t344 292t396 256.5t404.5 181t361 71.5h4q99 0 146 -46q48 -47 50 -126v-2q1 -81 -65 -213q-66 -134 -168.5 -279t-228 -311.5t-237.5 -309.5t-203.5 -276.5t-121.5 -208.5q198 166 529 417t436 288q-80 -52 -281.5 -213.5 t-416.5 -344.5q-214 -182 -378 -346q-163 -163 -163 -207v-1q0 -22 -51 2q-53 25 -70 53q-4 7 -4 12v1q0 94 136 314q138 222 333.5 478t391.5 506q195 251 333 445q137 193 137 246v1q0 36 -17.5 56t-40 25t-57.5 5q-116 -1 -292.5 -79.5t-362 -201.5t-373.5 -278 t-334 -305t-238 -287q-91 -136 -91 -219v-2q0 -17 17 -22t59 -5q14 0 52.5 7t39.5 7q0 -8 -28 -25t-71.5 -31.5t-78.5 -14.5h-3q-57 0 -89 44q-35 46 -35 97z" />
<glyph unicode="J" horiz-adv-x="1918" d="M-178 -377q-1 12 -1 24q0 87 55 185q63 111 176.5 215.5t272 202.5t333 170.5t367.5 116t368 43.5q99 0 194 -15q199 241 287 359q321 428 321 610q0 96 -86 119q-43 12 -92 12q-120 0 -276 -69t-299.5 -174.5t-270 -224t-207 -226.5t-90.5 -172q-4 -35 29 -35 q31 0 82 10t86 20l35 11q-71 -50 -142.5 -74t-111.5 -24h-7q-47 0 -80 27q-36 31 -36 85q0 76 60 173q61 99 161.5 197t235 193.5t273.5 168t284 117t260 44.5q57 0 106 -12q203 -48 203 -240q0 -90 -46 -211t-108.5 -227t-140.5 -216t-127.5 -171t-83.5 -100 q68 -17 155 -52.5t130 -68.5q0 -2 -2 -2q-6 2 -33.5 12.5t-33.5 12.5t-29.5 10.5t-32.5 11t-30 9.5t-34.5 10t-33.5 8.5t-39.5 9.5t-40.5 8q-106 -134 -253.5 -280t-328.5 -288t-364.5 -256t-375 -185.5t-347.5 -74.5h-14q-112 0 -187 46q-79 49 -90 157zM-22 -414 q41 -28 102 -28q147 0 354.5 92.5t411.5 236.5t394.5 315.5t318.5 332.5q-67 12 -146 12q-141 0 -309 -36.5t-331 -98.5t-316 -148.5t-268 -181.5t-184 -204q-68 -107 -68 -207q0 -56 41 -85z" />
<glyph unicode="K" horiz-adv-x="2025" d="M76 584v16q0 107 72 229q78 131 210.5 251.5t309.5 233t363 195t377.5 132t348.5 49.5q100 0 150.5 -47t52.5 -123v-8q0 -54 -26 -128q-28 -78 -73 -158t-116.5 -184.5t-136.5 -192t-154 -204.5q-7 -9 -11 -14.5t-10.5 -13.5t-11.5 -15q0 -9 23 -47q88 104 188 211 q446 482 860.5 764t661.5 282q37 0 60.5 -30t25.5 -62q0 -12 -2 -25t-7 -25.5t-9.5 -23.5t-13 -23.5t-14 -21t-15.5 -20.5t-14 -17t-14 -16t-11 -12q22 40 30 98q0 27 -30 33q-17 3 -36 3q-75 0 -194 -45q-150 -57 -342.5 -174t-434 -315t-476.5 -442q-143 -148 -187 -196 q59 -122 135.5 -238t177 -226.5t209 -193t237 -132.5t255.5 -50q211 0 408 133q18 13 20 8q2 -3 -8 -10q-246 -205 -510 -205q-132 0 -267 52t-244.5 132.5t-214 188.5t-179.5 209t-137 205q-242 -281 -327 -400q-110 -154 -110 -222q0 -30 21 -42q-16 -4 -31 -4 q-39 0 -64.5 33.5t-25.5 89.5q1 72 33.5 165t93.5 201.5t128.5 210t158.5 226.5q-24 89 -27 116q-4 24 -4 44q0 29 8 49q35 71 121 103q45 17 53 9q2 -3 -6 -8q-26 -17 -26 -65q0 -27 10 -72q94 127 130 176.5t109.5 154t107 160.5t68 124.5t46.5 117.5q3 13 3 25 q0 32 -22 49q-30 24 -80 26h-9q-131 0 -301 -58q-176 -60 -346 -156.5t-333.5 -220t-282 -243.5t-182.5 -230q-47 -82 -46 -141q0 -20 5 -38q11 -33 78 -33q37 0 90 18q0 -8 -27.5 -24t-71.5 -30q-41 -13 -76 -13h-5q-57 1 -96 36t-41 79zM1063 98q102 134 262 320l-16 33 q-163 -220 -246 -353z" />
<glyph unicode="L" horiz-adv-x="1925" d="M31 -418v7q0 49 65 99q70 54 179.5 98t250.5 81q82 57 191 163.5t187.5 194.5t189.5 217q-131 -16 -242 -16q-173 0 -321 43.5t-239 119t-102 167.5q-3 19 12 51.5t38 60.5q27 32 67.5 50t65.5 18t37 -2q-30 -10 -55.5 -34t-26.5 -50v-6q0 -39 24 -82q26 -46 81 -89 t128 -78t173.5 -56t209.5 -21q56 0 117 6q47 5 108 15q60 75 151 193t155.5 202.5t152 192.5t155.5 184t150.5 155t151.5 128t143.5 81t141.5 33h7q87 0 141 -52q46 -44 46 -117q0 -15 -2 -32q-14 -130 -118.5 -281.5t-268 -289.5t-384.5 -256.5t-454 -183.5 q-365 -432 -589 -582q166 29 292 35q94 4 146 4q354 0 714 -71t502 -185q-178 73 -430 117.5t-522 44.5q-156 0 -332 -19q-423 -51 -717 -197q-169 -83 -217 -159q-13 -21 -13 -36q0 -17 15 -28q-38 0 -93 50t-62 112zM1427 604q188 63 360 169t291.5 219.5t208 229.5 t129.5 208q36 81 36 133q0 8 -1 14q-5 41 -29 63q-16 14 -37 15q-11 0 -24 -4q-48 -15 -120.5 -79t-171 -179.5t-188.5 -226.5t-225.5 -280.5t-228.5 -281.5z" />
<glyph unicode="M" horiz-adv-x="2945" d="M88 608q0 80 80.5 197t212 239.5t306 246t354.5 219.5t367.5 156t334.5 60q145 0 222 -69.5t77 -196.5q0 -227 -612 -1057q209 234 422 438.5t369.5 329.5t266.5 196t146 71q54 0 114.5 -44t67.5 -102q-11 17 -45 17q-40 0 -194.5 -204t-335 -495t-281.5 -510 q119 199 303 415.5t370 391t363 318.5t303 223.5t168 79.5q49 0 108 -58t66 -98q-18 12 -65 12q-45 0 -139 -80t-206 -207.5t-231 -293.5t-216 -330.5t-159.5 -327t-62.5 -274.5q0 -148 70 -211q66 -59 216 -59h19q136 4 326 80t309 159q-85 -78 -190 -138.5t-198 -91.5 t-153.5 -46t-99.5 -19q-46 -4 -63 -4q-166 0 -266.5 99.5t-100.5 273.5q0 139 65 324t159.5 350.5t189 299.5t164.5 202q-107 -49 -293.5 -213t-360.5 -350.5t-303 -364t-129 -250.5q0 -21 -39 -5q-52 20 -83 66q-19 27 -19 54q0 73 76.5 246.5t179 355t208.5 342.5t164 217 q-199 -108 -471.5 -351.5t-517.5 -512.5q-194 -219 -298.5 -367t-104.5 -193q0 -6 9 -6q20 0 86 29l20 8q-34 -46 -98 -73t-103 -27q-26 0 -47 23.5t-21 52.5q0 53 58 165.5t150.5 254t204 303.5t223.5 325t204.5 306.5t150.5 261t58 176.5q0 112 -170 112 q-118 0 -264 -53.5t-288 -140.5t-285.5 -194.5t-264 -219t-215 -210.5t-148 -172t-53.5 -101q0 -17 13 -27t28 -10t50.5 5.5t50.5 9.5q0 -14 -67.5 -40t-102.5 -26q-48 0 -78.5 32.5t-30.5 79.5z" />
<glyph unicode="N" horiz-adv-x="2416" d="M55 608q0 80 80.5 197t212 239.5t306 246t354.5 219.5t366.5 156t333.5 60q145 0 222 -69.5t77 -196.5q0 -80 -73.5 -232t-197 -338.5t-235.5 -343t-237 -319.5q170 206 425.5 438.5t488 406.5t423 289.5t252.5 115.5q41 0 102 -64t58 -104q-13 24 -54 24 q-59 0 -226 -188.5t-352 -458t-292 -485.5q-119 -240 -119 -387q0 -64 21 -108.5t61.5 -69t90.5 -34.5t118 -10q41 0 61 2q83 4 180 34t156 57t150 75.5t106 55.5q-134 -116 -320 -188.5t-294 -80.5q-23 -2 -66 -2q-86 0 -154.5 18t-122.5 55.5t-83 101t-29 149.5 q0 236 189 592q105 201 246.5 404.5t269.5 342.5q-198 -114 -402.5 -262.5t-371 -293.5t-315 -291t-250 -263.5t-160 -202t-58.5 -114.5q0 -6 9 -6q20 0 86 29l20 8q-36 -46 -100 -73.5t-101 -27.5q-27 0 -47 23t-20 53q0 72 107 254.5t260 402.5t306 441t260 409.5 t107 268.5q0 112 -172 112q-118 0 -264.5 -53.5t-288 -140.5t-284.5 -194.5t-263.5 -219t-214.5 -210.5t-147 -172t-53 -101q0 -18 11.5 -27.5t26.5 -9.5t50.5 5.5t50.5 9.5q0 -14 -68 -40t-104 -26q-46 0 -75.5 32.5t-29.5 79.5z" />
<glyph unicode="O" horiz-adv-x="2142" d="M274 -92q3 151 77 324t193 331t273.5 305.5t315 255.5t321.5 173t289 65q94 0 156.5 -41t62.5 -111q0 -26 -12 -61q3 44 -48 71t-110 27q-108 0 -256 -67.5t-299 -178t-300.5 -257t-265.5 -298.5t-189.5 -309.5t-75.5 -283.5q0 -187 229 -187q103 0 243.5 53.5t291.5 149 t306.5 219.5t294 271.5t247 297t172 306t63.5 288.5q0 387 -420 387q-157 0 -318.5 -43t-298 -114.5t-263.5 -162t-224.5 -188.5t-170.5 -191.5t-111.5 -172t-38.5 -129.5q0 -15 2 -27t4 -20t8.5 -15.5t9.5 -11t12.5 -8.5t12.5 -6t15.5 -5t14.5 -5q-20 -13 -61 -13 q-58 0 -103 50q-44 48 -44 117q0 93 65 209q63 112 169 222.5t253 214t309 182t346 126t355 47.5q104 0 195 -18t169.5 -58t134 -99.5t87.5 -146.5t32 -196q0 -156 -75.5 -340.5t-201.5 -360t-299 -341t-359.5 -289t-391.5 -198.5t-387 -75q-184 0 -296 95q-111 93 -110 236 v5z" />
<glyph unicode="P" horiz-adv-x="2080" d="M109 836q0 60 43 137t128.5 161t201.5 168t272.5 159.5t331 133.5t387.5 92.5t432 34.5q74 0 159.5 -11t186 -41.5t180 -75.5t133 -121.5t53.5 -172.5q0 -111 -65.5 -224.5t-175.5 -210.5t-255.5 -188.5t-304.5 -165.5t-324 -136t-312.5 -103.5t-270.5 -64.5 q-151 -210 -242.5 -368.5t-91.5 -219.5q0 -50 10 -63q8 -10 25 -13q-15 -6 -32 -6q-41 0 -66 35t-25 92q0 156 220 520q-121 0 -192 31.5t-71 87.5q0 51 77.5 118.5t160.5 112t111 44.5q3 0 6 -3q-35 -21 -72 -45t-89 -63.5t-85 -80t-33 -71.5q0 -22 51 -22q98 0 222 26 q173 266 388 534t400 445t260 177q56 0 107.5 -47t60.5 -109q-20 29 -57 29q-58 0 -211 -145t-337 -361.5t-364 -456.5q190 59 393.5 144t397 189.5t346.5 212.5t246.5 221t93.5 208t-81.5 164.5t-222 104t-323.5 34.5q-174 0 -372 -47t-375.5 -122.5t-344 -171.5 t-286.5 -193t-192 -189.5t-72 -157.5q0 -57 51.5 -96t99.5 -43l-29 -2h-3q-58 0 -102 9t-80.5 30.5t-56 60.5t-19.5 95z" />
<glyph unicode="Q" horiz-adv-x="1935" d="M190 332q2 124 68 276.5t176 304t262.5 296t319 255.5t355.5 180t362 72h16q97 0 181 -23q91 -25 162.5 -77t112.5 -140q40 -87 40 -199v-5q-2 -139 -62 -296.5t-157.5 -301t-222.5 -283t-255 -251.5t-258 -197q170 -63 323.5 -149t252.5 -166.5t159.5 -148.5t69.5 -108 q1 -5 -7.5 3t-29.5 28.5t-51 48.5t-75.5 63.5t-99 72.5t-126.5 77t-153 75.5t-183 68.5t-213 57q-373 -206 -704 -211q-27 -1 -52.5 1t-57 10t-54.5 22t-38.5 39.5t-14.5 60.5q2 94 138.5 178.5t327.5 87.5h32q178 0 368 -51q236 158 467.5 405.5t383.5 510.5 q154 265 154 445q0 156 -91 227q-89 69 -235 69h-12q-147 -3 -316 -71t-323 -177t-298 -249.5t-249.5 -285t-170 -288t-66.5 -254.5q1 -55 30 -76q22 -15 61 -15q11 0 24 1q90 10 239 127q-57 -95 -153.5 -160t-161.5 -70q-12 -1 -24 -1q-32 0 -58 8q-36 11 -57 30.5t-34 47 t-17.5 53.5t-4.5 53zM287 -223q0 -23 17 -39t44.5 -23t50 -9.5t45.5 -2.5q122 3 237.5 53t270.5 146q-136 14 -219 14q-77 -2 -152 -10.5t-142.5 -25t-109.5 -43t-42 -60.5z" />
<glyph unicode="R" horiz-adv-x="2048" d="M72 831q0 91 65.5 193.5t178 199t270 185.5t333 155.5t376.5 106t391 39.5q90 0 184 -13t197.5 -47t184.5 -85t136.5 -136t62.5 -192q1 -9 0 -18q1 -85 -49 -177q-56 -101 -154 -191.5t-233 -172.5t-283 -141t-309 -94t-307 -35q-64 0 -125 6q13 -27 60 -101 q55 -80 124.5 -161t166 -168.5t198 -153.5t224 -109t239.5 -43q210 0 397 140q18 15 19 6q1 -4 -6 -10q-226 -209 -500 -209q-122 0 -250.5 43t-237 111t-210.5 156.5t-177.5 175t-132.5 171.5q-22 30 -45 68q-154 -204 -256 -357t-102 -188q0 -21 20 -21q84 0 158 43 q-42 -42 -97 -74t-104 -32q-69 0 -69 86q0 97 109.5 298.5t256.5 412.5l-8 22q-24 71 -24 96q0 4 1 7q17 85 97 140q42 30 56 24q5 -2 -3 -11q-15 -20 -15 -50q0 -13 3 -28q4 -21 12 -41q101 134 205.5 259t223 252t223 203.5t169.5 76.5q53 0 100 -21t76 -53q-8 4 -18 4 q-37 0 -104 -47q-86 -60 -185.5 -158.5t-218 -230t-207.5 -238.5t-166 -204q115 6 262 43t296.5 96t292 139t252.5 166t174 184q60 90 59 174v13q-5 82 -60 148.5t-138.5 106t-177.5 60.5t-186 21q-185 0 -381.5 -47.5t-363.5 -123.5t-318 -171.5t-257 -191.5t-168 -183.5 t-62 -147.5q0 -57 37 -97.5t78 -43.5q-6 -10 -53 -10q-100 0 -153.5 55t-53.5 141z" />
<glyph unicode="S" horiz-adv-x="1982" d="M-4 -252q0 86 97.5 197.5t246.5 213t312.5 188.5t309.5 139q141 50 218 49h6q-156 -42 -318 -119.5t-292 -165.5t-234 -178.5t-161.5 -167t-57.5 -121.5q0 -28 16 -46t46.5 -25t53 -9t56.5 -2q120 0 281.5 38.5t325.5 101t324.5 146.5t284.5 171.5t200.5 179t76.5 166.5 q0 46 -28.5 85.5t-82.5 71t-116.5 55.5t-143.5 46q-38 10 -105.5 27t-107.5 28t-95.5 28.5t-88 35.5t-65 42t-47.5 55.5t-15 68.5q0 98 71 195.5t181.5 172t240 133.5t253 91.5t214.5 35.5q15 1 30 1q129 0 201 -40q80 -44 79 -154q-1 -71 -41 -149q-40 -76 -102.5 -139 t-138 -114t-154 -80t-142.5 -29q-38 0 -70 15t-32 46q0 57 41 115t80 82q-43 -49 -43 -107q0 -12 24 -12q33 0 112 39.5t164 98t155 136t79 142.5q1 8 1 15q0 34 -27 50q-33 19 -97 19q-22 0 -76 -4q-97 -11 -245.5 -73.5t-285 -146.5t-235 -183.5t-98.5 -174.5 q0 -34 21.5 -62.5t57 -50t86.5 -41t105 -36t118 -33.5q11 -3 16 -4q59 -16 99.5 -28.5t94 -32t89.5 -39t74.5 -47.5t61.5 -59t37.5 -72.5t14.5 -88.5q0 -108 -78.5 -221t-206.5 -209t-295 -181.5t-341 -145.5t-347 -95t-311 -35q-57 0 -110 9t-105.5 30t-84.5 63t-32 99z " />
<glyph unicode="T" horiz-adv-x="1349" d="M288 1238q166 144 431 244.5t605.5 159t690.5 58.5q88 0 133 -2q304 -10 593 -74t419 -135q14 -7 15.5 -13t-6.5 -7.5t-19 1.5q-14 6 -60 19.5t-134.5 34t-192.5 39t-245.5 33.5t-281.5 20q-39 2 -118 2q-255 0 -500.5 -34t-441.5 -91.5t-364 -131.5t-282.5 -154 t-182 -159.5t-75.5 -148.5q-3 -27 6.5 -52.5t28 -45.5t40.5 -37.5t48 -31t45 -22t36 -15.5t18 -7q-3 -2 -9 -2q-56 1 -116 14.5t-119 41.5q-60 26 -96 76q-36 48 -35 111q-1 161 169 309zM590 -324v11q0 97 114 336q121 253 304 546.5t358 517.5q122 154 231 259 q95 92 144 92q58 0 111.5 -41t66.5 -103q-19 25 -49 25q-74 0 -252 -209q-172 -205 -389 -517t-371 -579q-147 -254 -147 -324v-7q67 3 155 59q-3 -29 -81 -85.5t-119 -57.5q-29 -2 -51 17.5t-25 59.5z" />
<glyph unicode="U" horiz-adv-x="2492" d="M82 608q0 105 84 233t220 249t313 236.5t357 201t357.5 138t310.5 52.5q122 0 197.5 -61t75.5 -189q0 -80 -55.5 -205t-145 -263t-197 -287.5t-215 -290.5t-197 -260t-145 -207.5t-55.5 -122.5h5q48 0 202 94q162 99 355 242t388.5 303t311.5 272q135 135 405 451 q210 248 340 360q31 29 77 57.5t73 28.5q57 0 109 -44.5t61 -106.5q-17 27 -49 27h-9q-44 0 -142 -87t-224 -233q-131 -152 -257.5 -321.5t-243 -353t-188 -356.5t-71.5 -292q0 -41 27 -68.5t92 -27.5q97 0 262 80q-38 -38 -118.5 -82.5t-156.5 -44.5q-109 0 -173 48 t-64 150q0 115 58.5 280.5t130.5 299t139 227.5q-109 -104 -240 -222.5t-308 -268.5t-331 -266t-295.5 -196.5t-214.5 -80.5q-37 0 -84 49.5t-47 87.5q0 66 62 183t161 253.5t218.5 289.5t239 303.5t218.5 282.5t161 239t62 161q0 119 -182 119q-128 0 -300 -66.5 t-338.5 -170.5t-332 -232t-290 -249.5t-202 -224.5t-77.5 -155q0 -17 11 -32t36 -15q21 0 76 11q-60 -60 -121 -60q-37 0 -64 14t-39.5 36t-18 42.5t-5.5 40.5z" />
<glyph unicode="V" horiz-adv-x="2131" d="M131 655q3 74 76 182.5t190 225t274.5 233t321 208t337 149t315.5 57.5q48 0 96 -15t91 -43q42 -28 68 -78q23 -44 23 -99v-13q-5 -113 -52.5 -264t-128 -324t-159 -326.5t-180.5 -347t-158 -309.5q167 242 376 503.5t445.5 515.5t462 458.5t437.5 337t360 147.5h5 q31 0 59 -33q30 -36 30 -73q0 -16 -2.5 -31.5t-7.5 -30t-10 -26.5t-14 -25.5t-14.5 -22t-16 -20.5t-14.5 -16.5t-14 -15t-11 -11.5q26 29 35 125q0 1 0.5 7.5t0.5 11.5t-2 11t-7 9.5t-13 3.5q-96 0 -270 -100t-378.5 -263.5t-433 -381t-433.5 -443.5t-381 -460t-275 -422 q-2 -5 5.5 -11t19.5 -6q9 0 21.5 2.5t20.5 4.5l9 2q-9 -14 -42 -26.5t-58 -12.5q-38 0 -63 30.5t-23 48.5q4 105 81 309t185 430t216 448t185 408t80 265v6q0 50 -46 80q-48 30 -110 31q-105 0 -235.5 -49t-257 -128.5t-254.5 -179t-236 -203t-193 -197t-133.5 -165.5 t-49.5 -104q-2 -20 10.5 -31.5t40.5 -11.5q11 0 27.5 1t23.5 1.5t12 -0.5q0 -4 -22.5 -17.5t-57.5 -26t-61 -12.5q-62 0 -94 34q-30 32 -29 83v6z" />
<glyph unicode="W" horiz-adv-x="2758" d="M53 696q0 79 71 186.5t185 217.5t264.5 218.5t303.5 192t307.5 135.5t271.5 52q138 0 231 -65t93 -189q0 -88 -39.5 -211.5t-97 -242.5t-140.5 -264.5t-149 -250t-145 -228.5t-109 -173q125 160 334.5 378.5t404 400t350.5 309.5t189 128q44 0 113 -50t73 -87 q-16 14 -55 14q-57 0 -265 -353q-208 -354 -360 -702q-102 -233 -101 -305q0 -34 21 -35q2 0 4 1q85 11 255.5 159t371.5 385q188 222 350 458t273.5 467t111.5 368q0 48 -12 82q-11 28 -57 28q-33 0 -74 -12t-53 -20q127 98 207 100h4q47 0 85 -21q38 -22 50 -55 q16 -46 16 -96q0 -119 -76.5 -292t-204 -361.5t-276.5 -373t-311 -356.5q-211 -227 -391 -373t-252 -157q-18 -3 -35 -3q-58 0 -88 34q-39 43 -39 108q0 122 58 297.5t145.5 347t168.5 309t148 232.5q-75 -51 -232 -186.5t-340 -308.5t-350.5 -344.5t-279 -311.5 t-111.5 -192q0 -9 23 -9q13 0 27 7q2 0 -4.5 -9.5t-22 -18.5t-33.5 -9q-29 0 -58.5 24t-29.5 49q0 72 92 262t223 418.5t262.5 457t223.5 416t92 255.5q0 117 -178 117q-105 0 -232 -47.5t-248 -124.5t-242 -173t-222 -195.5t-179.5 -188.5t-122.5 -156t-44 -94 q0 -23 10.5 -33t44.5 -10q17 0 34.5 4t21.5 5.5t7 -1.5q0 -11 -51.5 -36.5t-85.5 -25.5q-62 0 -93.5 42t-31.5 85z" />
<glyph unicode="X" horiz-adv-x="2084" d="M49 -240q21 79 144 211q-25 -42 -48 -106.5t-20 -75.5q135 0 495.5 239.5t741.5 592.5q2 13 14.5 91.5t15.5 99.5t13.5 91.5t14.5 99t12 88t11 92t7.5 78t6 80t1.5 64.5q0 122 -33 151q-39 31 -88 31q-87 0 -216 -77.5t-255.5 -196t-239 -249t-182 -249t-69.5 -182.5 q0 -13 10 -19t20.5 -7t32.5 -1q14 0 74 10q-2 -14 -54 -40q-50 -25 -93 -25h-3q-46 1 -79 36t-33 79q0 65 53.5 164t140.5 206t203.5 215t236 193t245.5 138.5t225 53.5q106 0 174 -59q88 -73 88 -279q0 -23 -1 -47t-3.5 -53t-4.5 -50t-7 -56.5t-7 -52.5t-8.5 -59t-9 -55 t-10 -60.5t-9.5 -57.5q213 207 362 345t291.5 258t253.5 191.5t206 106.5q91 33 163 33q36 1 60 -29q28 -34 28 -66q0 -78 -102 -180q20 27 33 97q0 26 -31 32q-12 2 -26 2q-111 0 -324 -141q-239 -159 -615 -481q-119 -101 -317 -291q-8 -51 -20 -149q-33 -270 -33 -451 q0 -145 24 -231t63.5 -121t104.5 -49q35 -7 66 -7q112 0 248 56q64 24 143.5 65.5t129.5 71t138 83.5t107 66q-51 -55 -200.5 -160.5t-338.5 -197.5q-80 -38 -166 -58q-78 -18 -134 -18h-11q-338 10 -338 557q0 157 27 365q-139 -132 -244 -228.5t-234 -211t-229 -193.5 t-199.5 -148.5t-177.5 -104t-133 -34.5q-38 0 -69 57q-20 36 -20 73q0 22 7 44z" />
<glyph unicode="Y" horiz-adv-x="2189" d="M166 582v13q0 79 54 183q59 112 161.5 228.5t243.5 232t293 207.5t318.5 153.5t311.5 71.5q14 1 28 1q91 0 162 -46q81 -52 87 -160v-12q0 -69 -41 -167q-46 -107 -117 -214.5t-154.5 -224.5t-155 -213.5t-117.5 -178.5q-44 -78 -44 -117q0 -30 46 -30q12 0 26 2 q89 9 256.5 127.5t355.5 297.5t350 372q69 82 148.5 182t129.5 164t99.5 123.5t84 88t58.5 28.5q57 0 107.5 -41.5t52.5 -75.5q-5 5 -10 8.5t-10.5 4.5t-8 1.5t-8 0t-6.5 -0.5q-36 -2 -111.5 -93.5t-175.5 -244t-201 -314.5t-219.5 -347t-201.5 -299q-41 -55 -70 -103 q183 -31 258 -92q0 -2 -4 -2q-143 50 -270 70q-88 -124 -212.5 -261.5t-279.5 -275t-313 -247.5t-323.5 -179t-299.5 -69q-232 0 -245 178q-1 13 -1 26q0 97 58 204q67 122 191 233.5t283.5 205t352.5 154.5t381 74q79 5 136 5q43 0 73 -3q321 434 508 752 q-97 -105 -223.5 -224t-264.5 -233t-266.5 -191t-203.5 -82h-11q-63 0 -107 43q-48 48 -50 89v10q0 62 43 156q47 102 120.5 208t159.5 224.5t160 218t122 186.5q44 82 44 126v5q-4 47 -23.5 76.5t-45.5 37.5t-53.5 11.5t-47.5 -0.5q-124 -7 -271.5 -79t-279.5 -177 t-258 -229.5t-216.5 -237.5t-144.5 -199q-53 -82 -53 -112q0 -20 17 -30q16 -10 34 -5q12 0 35.5 5t32.5 9q-18 -29 -55 -53.5t-74 -28.5h-9q-42 0 -80 25q-43 28 -46 70zM279 -645q3 -49 41 -73q33 -21 78 -21h12q111 7 249 67.5t273.5 154.5t270.5 212t250 241.5 t202 241.5q-14 2 -43 2t-52 -1l-22 -1q-120 0 -264.5 -35.5t-285 -95.5t-272.5 -142.5t-230.5 -172t-155.5 -188.5q-52 -91 -52 -172q0 -9 1 -17z" />
<glyph unicode="Z" horiz-adv-x="1769" d="M-14 -303q1 83 140.5 240t359.5 339.5t496.5 383.5t545.5 374t512.5 308.5t392.5 189.5l-42 -17q-42 -17 -116 -46t-169 -64t-208.5 -71.5t-225.5 -67.5t-230 -53t-213 -27q-24 -1 -46 -1q-93 0 -157 20q-78 25 -78 67q0 57 32.5 118.5t80.5 109t96.5 83.5t87.5 53 q-164 -142 -164 -215q0 -23 16 -37.5t48 -22t63 -10t76 -3.5h24q178 0 368 28q204 30 363 73t291 87t216 74t98 30q10 0 21 -26q7 -20 -1 -21l-33 -17q-766 -384 -1437 -910q-170 -134 -326 -271q-38 -34 -129 -112.5t-148.5 -129t-133.5 -123t-131 -132.5q146 52 384 80 q223 27 445 26h31q543 -7 753 -209q-214 132 -602 135h-22q-199 0 -425 -34q-238 -36 -421.5 -90t-305.5 -118t-122 -114q-1 -27 -18 -2q-27 39 -35 101q-2 13 -2 24z" />
<glyph unicode="[" horiz-adv-x="0" d="M-3701 -569q-3 115 270 212t730.5 160.5t1043.5 98.5t1219 35q233 0 555 -7q192 -5 429 -17t571 -39t669.5 -64t712.5 -95.5t711.5 -129.5t656.5 -171t557 -215q-463 182 -1182.5 324.5t-1480 220.5t-1501.5 98q-255 6 -500 6q-527 0 -1031 -28t-896 -76t-693 -108 t-462.5 -127.5t-163.5 -131.5q0 -34 82 -59q-297 15 -297 113z" />
<glyph unicode="\" horiz-adv-x="1320" d="M422 1608q6 82 29 102q60 60 155 53q-27 -12 -33 -96q-17 -183 42 -628t144 -835.5t138 -439.5q3 -6 11.5 -8.5t9.5 2.5q13 13 20 28t13 36.5t10 32.5q0 -122 -33 -150q-13 -16 -42.5 -15t-51.5 21q-85 84 -191.5 471t-172 810.5t-48.5 615.5z" />
<glyph unicode="]" horiz-adv-x="0" d="M-3064 -487q-1 125 360.5 216.5t923 135t1235.5 43.5q329 0 592 -8q216 -6 512 -28t717 -73.5t814 -122t790 -186t659 -254.5q-281 120 -705.5 223.5t-885 173t-921.5 113.5t-865 57q-267 9 -516 9q-430 0 -825.5 -22t-694 -60t-523 -86t-341.5 -102t-119 -107 q0 -23 64 -53q-117 9 -194 48.5t-77 82.5z" />
<glyph unicode="_" horiz-adv-x="1376" d="M-20 -55q0 31 101.5 56.5t226.5 37.5t227 12q555 0 661 -46q17 -9 10 -13q-153 0 -323.5 -15t-307.5 -36.5t-250 -43t-179.5 -36.5t-67.5 -15q-6 0 -28.5 12.5t-46 37t-23.5 49.5z" />
<glyph unicode="`" horiz-adv-x="632" d="M223 1018q0 27 55.5 56.5t92.5 29.5q3 0 4.5 -1t1 -3t-2 -5t-2.5 -8t-1 -10q0 -30 38 -74.5t97 -87t140.5 -72.5t158.5 -30q7 0 -4 -7q-25 -18 -88 -18q-90 0 -183 25.5t-158.5 62t-107 75.5t-41.5 67z" />
<glyph unicode="a" d="M-68 129q0 66 51 156t139 180t194.5 168t230 127t231.5 49q43 0 81.5 -11.5t68.5 -42t30 -75.5t-38 -96q-5 -1 -7 2q23 41 23 73q0 45 -27 69q-24 21 -63 20h-10q-86 -4 -191.5 -60t-210.5 -145q-55 -47 -110.5 -107.5t-95.5 -114.5t-71 -102t-45 -77.5t-8 -32.5t15 0 q48 16 211 130.5t250 188.5q7 6 42 38.5t64 59t63 54.5t52 38q6 3 12 3q25 0 57 -43q35 -46 34 -69q0 -4 -1 -7q-1 2 -3 2q-10 0 -52 -48q-50 -56 -111.5 -141.5t-89.5 -146.5q-20 -48 -20 -70q121 35 523 413q18 17 26 24q5 5 9.5 2.5t5.5 -7.5t-1 -8q-78 -86 -159 -168 t-176.5 -171t-176 -143t-123.5 -54q-14 0 -35 12q-24 13 -45.5 41.5t-21.5 54.5q0 14 16 76q18 54 52.5 116.5t66.5 104.5q-79 -79 -285 -242t-262 -163q-6 0 -18 6q-28 14 -59.5 60.5t-31.5 76.5z" />
<glyph unicode="b" horiz-adv-x="864" d="M-27 68q-3 8 -3 19q0 54 61 194q80 178 240 424t339 485q135 180 248 274q53 37 78 37q78 0 141 -63q29 -28 25 -37q-2 -3 -10 2q-11 6 -23 6q-35 0 -83 -41q-66 -56 -167 -182q-176 -221 -313 -418t-246 -406q81 100 207.5 208.5t248.5 177.5q97 55 150 55q14 0 25 -4 q20 -8 58 -52t38 -65q0 -68 -67.5 -184t-165.5 -226t-222.5 -191t-224.5 -81q-63 0 -116.5 36t-53.5 85q0 9 5 11l3 -3q0 -17 24.5 -38t53.5 -21q72 0 177 86.5t193.5 199t154.5 217t73 144.5h-1q-13 0 -60 -23q-49 -24 -125 -72t-157.5 -109.5t-167.5 -148t-146 -174.5 q-76 -111 -88 -153q-4 -13 -4 -23q0 -34 41 -39q-10 -4 -20 -4q-21 0 -46 15q-14 5 -39 31.5t-35 50.5z" />
<glyph unicode="c" horiz-adv-x="710" d="M-27 113q-4 29 4 61q13 71 72.5 170.5t155.5 192.5q125 124 267.5 198t252.5 74q34 0 75.5 -37.5t41.5 -62.5q0 -28 -15 -56.5t-45 -57.5t-51.5 -47t-56.5 -44q-2 -2 -5.5 -1.5t-5 2.5t0.5 5q26 26 68 112q34 69 34 90q0 5 -2 7q-78 -1 -189 -77t-204.5 -176t-160.5 -202 t-67 -155q0 -22 20 -29.5t40 -5.5q66 7 160 53.5t206.5 126t187.5 137.5t177 141q7 5 14 -3q3 -4 0 -7q-53 -50 -89 -83.5t-106 -94.5t-124.5 -104t-128.5 -94.5t-134 -83.5t-125.5 -54t-117.5 -22q-50 0 -96.5 39t-53.5 88z" />
<glyph unicode="d" horiz-adv-x="978" d="M-72 125q0 88 123 250t279 264q258 170 420 170q58 0 90 -35q105 163 354 504q101 128 170 186q51 41 76 41h10q73 0 133 -58q28 -26 25 -34q-1 -3 -9 2q-22 11 -55.5 -8t-69 -56.5t-71 -81.5t-69.5 -88q-18 -25 -27 -36q-121 -152 -275 -383q-320 -480 -395 -670 q22 2 59 21.5t85 56.5t92 72t101 87t89.5 81.5t80.5 75t52 49.5q6 5 11 2.5t6 -7.5t-1 -8q-64 -73 -168 -180t-232 -221t-181 -131q-11 -4 -23 -4q-21 0 -45 12q-29 16 -53.5 45.5t-24.5 60.5q0 63 146 332q-13 -10 -107.5 -92.5t-181.5 -156t-180.5 -137.5t-130.5 -64 q-27 0 -65 51.5t-38 87.5zM96 109q1 -1 4 -1q31 0 215 130q199 140 373 292l133 215q-20 6 -41.5 6t-44.5 -6q-62 -16 -153 -82.5t-181 -154.5q-85 -80 -162 -176t-115 -157q-30 -49 -30 -62q0 -3 2 -4z" />
<glyph unicode="e" horiz-adv-x="708" d="M-45 115q0 53 29 135q75 179 282 354q118 98 242 151.5t199 53.5q30 0 77 -33t47 -71q0 -62 -106.5 -163.5t-256.5 -182t-259 -83.5q-73 -85 -82 -161q-2 -19 13 -29t48 -10q53 0 146 45.5t201 119.5t202 145.5t183 145.5q3 2 7.5 0t6.5 -5.5t0 -6.5q-201 -187 -318 -278 q-325 -256 -516 -256q-47 0 -96 44t-49 85zM236 317q63 7 155.5 64.5t172 129t139 140t63.5 97.5q-80 -26 -168 -82.5t-158 -121t-123.5 -124t-80.5 -103.5z" />
<glyph unicode="f" horiz-adv-x="468" d="M-512 -903v6q0 95 160 443q164 359 405 767q-21 17 -18 43t17.5 51t39.5 42.5t47 17.5q299 477 559 811q90 118 168 186q54 41 76 41h10q74 0 135 -57q29 -27 25 -35q-2 -3 -10 2q-13 7 -29.5 2.5t-35 -16t-38.5 -30t-40 -41t-40.5 -47.5t-40 -50.5t-38.5 -49.5 q-20 -26 -29 -38q-109 -136 -222.5 -303.5t-305.5 -466.5l2 -4q116 38 293.5 129.5t252.5 154.5q3 7 9 7q10 0 10 -11v-4q-46 -45 -173 -126t-257 -150q-110 -56 -139 -62q28 -82 28 -205q0 -54 -10 -116q-27 -139 -85.5 -275.5t-130 -241.5t-150 -196.5t-149 -151.5 t-123 -94t-75.5 -35h-6h-2q-28 0 -58 36q-30 38 -32 67zM-379.5 -879.5q0.5 -3.5 2.5 -3.5q4 -2 21 9q79 58 152 124.5t151.5 157.5t140.5 187.5t111 217t69 244.5q6 30 6 72q0 127 -38 176q-165 -263 -351 -623t-258 -538q-4 -8 -5.5 -14t-1 -9.5z" />
<glyph unicode="g" horiz-adv-x="890" d="M-518 -831q0 36 14 79q61 192 329.5 419t627.5 399l217 387l-2 -1q-3 -2 -8 -6t-11.5 -9t-15 -11.5l-17 -13t-17.5 -14.5t-17 -15q-112 -105 -258 -219q-231 -178 -281 -178q-11 0 -20 6q-29 18 -59 62.5t-30 74.5q0 55 37 128t98.5 147.5t147 148t177 130t194 91.5 t192.5 35q44 0 83.5 -11.5t69.5 -42t30 -75.5q0 -38 -39 -96q-4 -1 -4 2q20 45 20 73q0 45 -27 69q-24 20 -63 20h-10q-167 -8 -402 -205q-55 -47 -109.5 -107t-94.5 -113.5t-69.5 -101t-42.5 -77.5t-7 -35q1 -1 2 -1q17 0 178 105q125 84 262 199q32 27 71 60t54 46 t33.5 28t28.5 21t20 11q5 2 11 2q25 0 65 -44q42 -47 42 -69q0 -3 -1 -6q-4 2 -8.5 3.5t-16 -14t-27.5 -47.5l-124 -231q113 40 135 47q34 10 47 3q5 -3 -7 -8q-1 0 -3 -1q-81 -33 -195 -82q-62 -108 -117 -198.5t-125 -195.5t-135 -189t-142 -168.5t-151 -146 t-157.5 -108.5t-165.5 -69q-31 -8 -68 -8q-61 0 -100 30t-39 91zM-418 -784q0 -39 45 -39q39 0 97 28q298 160 692 797q-596 -315 -801 -696q-33 -59 -33 -90z" />
<glyph unicode="h" horiz-adv-x="911" d="M-18.5 101.5q0.5 20.5 16 71t43.5 112.5q74 169 240.5 422t339.5 483q123 169 247 274q49 37 78 37q78 0 141 -63q29 -28 25 -37q-2 -3 -10 2q-10 5 -21 5q-57 0 -159 -116q-169 -191 -371 -475t-318 -514q165 176 382 335t274 159q35 1 71 -57q24 -38 24 -59 q0 -11 -7 -17q-28 -21 -116.5 -140.5t-171 -252.5t-85.5 -177q26 7 61.5 27.5t82 56t83 65t93 81t83 75.5t82 77t62.5 59q6 5 12 2.5t7 -7.5t-1 -8q-379 -408 -544 -504q-32 -20 -70 -30q-17 -4 -31 0q-30 10 -59 52t-29 71q0 55 59.5 168t136 218t130.5 154 q-91 -42 -212.5 -129t-230.5 -190l-102 -105q-99 -107 -127 -176q-10 -22 -10 -38q0 -33 43 -38q-10 -4 -22 -4q-22 0 -46 15q-12 5 -37.5 32t-35.5 50q-1 13 -0.5 33.5z" />
<glyph unicode="i" horiz-adv-x="460" d="M-55 86q0 57 79.5 199.5t182 281t166.5 189.5q12 12 30 12q36 0 82.5 -47.5t46.5 -85.5q0 -2 -1 -2.5t-3.5 0t-5.5 2t-7.5 2.5t-8.5 2h-3q-39 1 -127 -115q-92 -120 -168.5 -251t-90.5 -177q131 35 549 439q6 5 12 2.5t7 -7.5t-1 -8q-79 -86 -158 -166t-174 -168.5 t-174.5 -143t-124.5 -58.5q-14 0 -24 2q-26 8 -55 40t-29 58zM465 876q0 44 44 117q46 76 85 88q5 1 10 1q52 0 109 -66q22 -25 24 -46q1 -5 -2 -5q-1 0 -5.5 1l-9 2t-12.5 -0.5t-16 -4.5q-25 -10 -79 -58t-74 -76q-22 -25 -47 -7q-27 20 -27 54z" />
<glyph unicode="j" horiz-adv-x="419" d="M-1020 -831q0 34 14 77q64 193 330 419.5t621 397.5q25 40 67 114t54 95q223 387 278 461q45 56 80 58h5q34 0 78 -47q48 -50 48 -89q0 -4 -7 -1l-4 2t-5.5 2t-6.5 1h-3q-27 0 -66 -47q-57 -69 -215 -354q-9 -14 -25.5 -42.5t-25.5 -43.5q107 38 137 47q34 10 47 3 q5 -3 -7 -8q-1 0 -3 -1q-116 -45 -197 -82q-73 -129 -136.5 -233t-145 -225t-161 -214.5t-168 -179t-184.5 -143t-192 -82.5q-31 -8 -68 -8q-62 0 -100.5 30.5t-38.5 92.5zM-918 -784q0 -41 46 -41q38 0 96 28q87 47 178 129.5t179 192.5t166.5 224t162.5 251 q-589 -311 -799 -696q-29 -57 -29 -88zM469 924q0 45 45 117q46 75 86 87q5 1 10 1q50 0 107 -66q8 -9 15.5 -22t9 -20.5t-0.5 -8.5q-1 0 -8.5 1.5t-17 1t-19.5 -4.5q-25 -10 -79 -57.5t-74 -75.5q-22 -25 -47 -7q-27 21 -27 54z" />
<glyph unicode="k" horiz-adv-x="778" d="M-21 103q0 21 16 71q16 52 46 111q11 24 33.5 68.5t27.5 54.5q-9 38 -9 62q0 14 3 24q15 42 90 57q180 304 418 620q161 215 258 293q48 37 78 37q81 0 145 -64q29 -29 24 -36q-2 -3 -9 2q-11 6 -24 6q-31 0 -71 -33q-57 -46 -159 -164l-123 -155q-157 -199 -385 -563 q129 137 282.5 249.5t225.5 112.5q32 0 65 -47t33 -82q0 -55 -69.5 -128.5t-167.5 -134t-212 -100.5q-97 -34 -171 -33q-13 0 -25 1q27 -69 73 -143.5t109 -145.5t133.5 -127t152.5 -90.5t159 -34.5q112 0 211 74q7 7 14 2q4 -2 -2 -8q-123 -117 -281 -117q-95 0 -197 43 t-190.5 114.5t-164 158t-128.5 178.5q-8 -15 -24 -42.5t-27.5 -48t-25 -47t-19.5 -46t-8 -37t7 -28t28 -12.5q-10 -4 -22 -4q-22 0 -46 15q-12 5 -36 32t-35 50zM281 397q7 -33 12 -41q64 9 141.5 57.5t142.5 112.5t117 129t76 113q-63 -16 -181.5 -103.5t-206 -167.5 t-101.5 -100z" />
<glyph unicode="l" horiz-adv-x="493" d="M-25 111q0 113 344 651q146 229 365 516q97 127 170 186q51 41 76 41h10q72 0 132 -57q29 -27 25 -35q-2 -3 -10 2q-21 9 -47.5 -2.5t-63.5 -49t-59.5 -63.5t-67.5 -84t-56 -71q-115 -147 -275 -383q-308 -468 -381 -662q18 -2 51 14.5t76 49t87 68t97 83.5t91 83t84 78 t63 59q6 5 10.5 2.5t5 -7.5t-1.5 -8q-113 -130 -305.5 -316t-273.5 -216q-11 -4 -23 -4q-21 0 -43 12q-14 7 -39.5 34t-33.5 48q-7 14 -7 31z" />
<glyph unicode="m" horiz-adv-x="1343" d="M-43 66q-2 8 1 27t17.5 56t38.5 80q68 128 154.5 259.5t169.5 228.5q46 55 80 82q10 10 26 10q38 0 83.5 -46.5t45.5 -84.5q0 -2 -1 -2.5t-3 0t-4.5 2t-7 2.5t-8.5 2q-11 2 -30.5 -12.5t-39.5 -38.5q-60 -68 -166 -222t-149 -227q63 84 205.5 223t277.5 249.5t176 119.5 q4 2 13 2q19 0 44.5 -26.5t39.5 -56.5t4 -40q-81 -87 -185 -256t-104 -221q153 193 379.5 408t288.5 215q21 0 47.5 -28.5t39 -61t-0.5 -43.5q-27 -22 -116.5 -143.5t-172 -256.5t-82.5 -176q32 7 76 32.5t102.5 71.5t100.5 80.5t112 99t91.5 84.5t80.5 77q6 5 12 2.5 t7 -7.5t-1 -8q-77 -84 -159.5 -167.5t-177.5 -171.5t-175.5 -142.5t-123.5 -54.5q-34 0 -70.5 42.5t-36.5 73.5q0 82 121.5 279t208.5 278q-103 -71 -203 -161.5t-169 -166.5t-126 -142t-93.5 -104t-51.5 -38q-23 0 -58.5 38.5t-35.5 68.5q0 63 98.5 235.5t195.5 261.5 q-245 -148 -546 -485q-50 -56 -72 -84q-54 -65 -54 -97q0 -18 17 -26q-10 -2 -19 -2q-31 1 -61 27q-38 34 -51 82z" />
<glyph unicode="n" d="M-43 70q-4 13 9.5 56.5t47.5 106.5q74 144 195 312q58 82 118.5 153t98.5 101q10 10 27 10q38 0 83.5 -46.5t45.5 -84.5q-2 -3 -3 -3t-8.5 3t-13.5 4h-1q-18 0 -64 -48t-99 -116q-179 -237 -233 -336q33 47 104 115q174 171 391 336.5t269 165.5q23 0 50.5 -29.5 t37.5 -59t0 -44.5q-49 -40 -209.5 -273t-163.5 -297q122 33 529 417q17 15 24 22q6 5 11 2.5t6 -7.5t-1 -8q-77 -84 -159 -167t-177 -170t-175.5 -141t-123.5 -54q-29 0 -63 43q-37 43 -37 80q0 82 127.5 278t216.5 277q-120 -54 -309.5 -205.5t-310.5 -282.5 q-28 -28 -74 -86q-41 -49 -51.5 -87t12.5 -48q-9 -2 -18 -2q-32 -1 -60 27q-36 36 -49 86z" />
<glyph unicode="o" horiz-adv-x="813" d="M-20 141q0 97 48.5 197t130 183t181 148.5t208 102.5t204.5 37q84 0 125 -35q6 -6 -5 -6q-7 1 -25 3.5t-26 2.5q-170 0 -360.5 -175t-286.5 -357q-59 -113 -59 -165q0 -32 22 -42q12 -5 26 -4q35 1 87 31q72 44 151 122.5t153 168t128 171.5q-9 17 -18.5 52.5t-4.5 48.5 q5 17 40.5 50t54.5 34q13 1 28 -7t19 -14q33 -52 73 -80q35 -24 83 -25q7 0 14 1q60 5 113.5 28t84 43t37.5 19q-8 -25 -65 -65.5t-127 -63.5q-61 -19 -121 -19q-39 0 -62 9q-20 -98 -101.5 -202.5t-185.5 -182.5t-216 -126q-104 -45 -181 -44h-12q-68 4 -111.5 52 t-43.5 109z" />
<glyph unicode="p" horiz-adv-x="935" d="M-504 -782q20 162 148.5 422t288 503t327.5 459q115 146 178 197q14 12 31 12q36 0 80.5 -47t44.5 -86q-1 -2 -2 -2t-7 2.5t-12 3.5h-2q-36 0 -165 -164l-115 -160q90 98 225.5 206.5t262.5 179.5q102 56 153 56q13 0 22 -3q22 -8 60.5 -52.5t38.5 -66.5 q0 -54 -43 -140.5t-116.5 -177.5t-160 -172.5t-184.5 -133.5t-178 -52q-63 0 -118.5 35t-55.5 84q0 9 6 11q3 -1 4 -3q0 -17 24 -38t54 -21q72 0 176.5 84.5t192.5 195.5t154.5 215.5t76.5 149.5q-11 0 -51.5 -19t-112.5 -63.5t-155 -104t-190.5 -153t-207.5 -199.5 q-91 -131 -163.5 -242.5t-158.5 -257.5t-142.5 -281.5t-74.5 -242.5q-6 -22 -6 -40q0 -14 3 -26q8 -28 40 -32q-26 -10 -50 -10q-42 0 -77 32q-45 41 -45 110q0 16 2 32z" />
<glyph unicode="q" horiz-adv-x="849" d="M-84 -811q10 62 90 238q84 190 232.5 448.5t322.5 476.5q-142 -125 -300.5 -245.5t-207.5 -120.5q-29 0 -69.5 53.5t-40.5 89.5q0 55 37 128.5t98.5 149t146.5 149t176.5 130.5t194 92t192.5 35q44 0 84 -11t71.5 -41.5t31.5 -76.5q0 -43 -41 -98q-2 -2 -4 0t0 4 q18 45 18 74q0 46 -26 70q-23 20 -62 20h-10q-86 -4 -193 -60.5t-211 -146.5q-56 -47 -112 -110t-98 -121t-73.5 -109.5t-45.5 -83.5t-8 -35q1 -1 3 -1q26 0 204 128q190 137 288 223q3 3 57.5 54t99 89.5t68.5 51.5q5 3 12 3q24 0 57 -44q37 -47 37 -71q0 -4 -1 -7 q-1 1 -2 1q-15 0 -148 -150q-20 -23 -43 -50q-115 -134 -340 -494t-301 -513l-2 -2q113 155 294.5 330.5t228.5 189.5q9 2 10 -10q-103 -83 -210.5 -203.5t-184.5 -230t-129 -200t-60 -128.5q-2 -3 -29 -8q-5 -1 -10 -1q-29 0 -51 25q-26 28 -35 62.5t-6 56.5z" />
<glyph unicode="r" horiz-adv-x="833" d="M-55 66q-1 5 -1 12q0 33 31 92q61 139 226 375q55 79 114 149.5t97 100.5q15 10 28 10q37 0 82 -46.5t45 -84.5q-1 -3 -2 -3t-7.5 3t-12.5 4h-1q-22 0 -66 -46q-46 -46 -97 -114q-129 -174 -170 -246q77 100 211 218.5t278 222.5q127 91 185 96h2q18 0 58 -44 q34 -37 34 -52q0 -4 -2 -6q-5 -5 -39 -38t-62 -63t-64.5 -73t-67.5 -90.5t-50 -92.5q70 6 168 64.5t199 148.5q2 2 8 2.5t8 -2.5q-16 -21 -63 -64.5t-109 -92.5t-132.5 -85t-119.5 -36q-26 0 -62 38t-36 58q0 41 38.5 114.5t80.5 122.5q-139 -82 -228.5 -155.5 t-195.5 -190.5q-87 -94 -150 -196q-42 -69 -42 -98q0 -14 10 -19q-9 -2 -18 -2q-31 1 -58 27q-35 34 -47 82z" />
<glyph unicode="s" horiz-adv-x="579" d="M-96 49q3 40 84.5 106.5t166 115.5t128.5 67q-5 6 -31 29t-48 45q-20 21 -36 54q-11 24 -12 47q0 9 2 17q16 74 104.5 148t201 118t202.5 44q38 0 60 -52q17 -42 18 -83q0 -10 -1 -19q-2 -24 -75 -87.5t-111 -63.5q-3 1 -4 8q4 0 39 37t70.5 83t37.5 64h-7 q-45 -1 -139 -47q-100 -50 -189.5 -120t-102.5 -116q-2 -10 1 -20.5t12 -20.5t16 -16.5t18.5 -16t14.5 -12.5q147 83 297 139.5t223 73.5t96 17q12 0 12 -10q3 -1 -8 -5q-13 -6 -79 -27q-369 -122 -523 -214q26 -18 51 -56q22 -32 22 -59q0 -4 -1 -8q-10 -47 -60.5 -93.5 t-116.5 -78t-135.5 -51t-119.5 -19.5q-60 0 -78 82zM-43 72q45 13 121.5 51.5t144.5 91t68 88.5q-97 -55 -194 -121.5t-140 -109.5z" />
<glyph unicode="t" horiz-adv-x="479" d="M-25 111q0 51 84 215t260 436q107 164 191 274q-152 -30 -235 -95q-40 -31 -40 -52q0 -8 6 -15q3 -3 7 -6q-30 0 -68 30q-42 33 -41 80q1 42 63 76q66 36 163 58t221 37q117 153 173 218t95 97q51 41 76 41h10q72 0 132 -57q29 -27 25 -35q-2 -3 -10 2q-22 10 -52.5 -5.5 t-69.5 -57.5t-66.5 -75.5t-71.5 -90.5q-2 -3 -3.5 -5t-4 -5t-4.5 -6t-4 -5q122 6 250 6q148 0 304 -8q291 -15 501 -59q14 -3 15 -5q2 -2 -15 -1q-268 23 -511 23q-329 0 -612 -42q-63 -78 -225 -317q-308 -468 -381 -662q18 -2 51 14.5t76 49t87 68t97 83.5t91 83t84 78 t63 59q6 5 10.5 2.5t5 -7.5t-1.5 -8q-113 -130 -305.5 -316t-273.5 -216q-11 -4 -23 -4q-21 0 -43 12q-14 7 -39.5 34t-33.5 48q-7 14 -7 31z" />
<glyph unicode="u" horiz-adv-x="980" d="M-45 94q0 63 68 196t161 261q54 75 112.5 142t96.5 98q12 12 29 12q37 0 83 -47t46 -86q0 -2 -1 -2.5t-3.5 0t-5.5 2t-7.5 2.5t-9.5 2q-11 1 -31 -14.5t-48.5 -48t-51 -60.5t-55.5 -70q-81 -106 -144 -219t-63 -156q66 27 187.5 127t218.5 193q8 7 156 163t218 210 q13 10 29 10q37 0 82 -46.5t45 -84.5q-2 -3 -2.5 -3t-8 3t-14.5 4q-23 0 -67 -47q-37 -39 -156 -197q-76 -102 -127 -199.5t-51 -140.5q45 14 116 63t163.5 130.5t140 125.5t125.5 118q6 5 11 2.5t6 -7.5t-1 -8q-78 -86 -159 -168t-176.5 -171t-176 -143t-123.5 -54 q-17 0 -32 12q-26 13 -50 43.5t-24 56.5q0 20 22 88q28 75 81.5 171t107.5 163q-23 -23 -70.5 -72t-76 -78t-74 -75t-76.5 -75.5t-71.5 -67t-71 -61.5t-62 -47.5t-57 -36.5t-45.5 -17h-17q-27 0 -61.5 34.5t-34.5 69.5z" />
<glyph unicode="v" horiz-adv-x="641" d="M29 61q0 66 33 176.5t94 233.5q119 239 202 311q16 13 27 13h3q36 0 80 -45q46 -47 46 -88q-2 -3 -2.5 -2.5t-5.5 2.5t-12 2h-3q-26 0 -66 -56q-42 -60 -106 -174q-18 -31 -34.5 -66t-28 -63t-22 -60t-16 -49t-11.5 -39l-6 -22q124 88 358 325t406 431q17 19 17 11 q1 -4 -5 -15q-73 -129 -212.5 -295.5t-273 -297t-242 -221.5t-132.5 -91h-2q-25 0 -55 31q-30 32 -31 48z" />
<glyph unicode="w" horiz-adv-x="1024" d="M-18 74v7q0 77 62 219q65 150 155 284q82 126 149 182q12 12 29 12q40 0 89 -46.5t50 -86.5q1 -3 -1 -2l-2 1q-10 4 -19 5q-27 0 -72 -51q-73 -83 -169.5 -245t-107.5 -242q56 30 175.5 136t246.5 253q49 73 69.5 102t45 60t43.5 47q13 10 29 10q37 0 87.5 -46t53.5 -85 q-2 -2 -2.5 -2t-8.5 2.5t-16 3.5h-1q-23 0 -57 -39q-36 -40 -95 -133q-53 -84 -92 -182q-34 -85 -33 -114v-7q184 113 402 354t372 485q9 12 11 11.5t-5 -15.5q-44 -113 -136.5 -252t-197.5 -261t-208.5 -226.5t-180.5 -165.5t-102 -61q-33 0 -68 39t-37 57q-1 11 -1 23 q0 104 100 313q-219 -254 -318 -336q-6 -5 -19 -16q-105 -89 -126 -89q-26 0 -57.5 39t-36.5 58z" />
<glyph unicode="x" horiz-adv-x="702" d="M-113 55q0 86 252 269q21 16 111 77q-19 62 -19 142q0 65 11 114q5 19 13.5 34.5t22 28.5t23.5 21t29 17.5t26 12.5t27 11q52 17 61 6q-6 -6 -16 -22q-18 -36 -29.5 -93.5t-11.5 -109.5q0 -33 8 -65q149 101 344 210t308 154q7 3 9.5 1.5t1 -5t-6.5 -6.5 q-110 -65 -242.5 -158.5t-199.5 -145.5t-189 -149q16 -74 51.5 -157.5t89.5 -164.5t117.5 -146t142 -105.5t156.5 -40.5q59 0 84 4q5 2 8 0q2 -1 -3 -3q-1 0 -3 -1q-55 -21 -121 -21q-95 0 -193.5 42.5t-183.5 115.5t-156.5 170t-117.5 205q-177 -135 -238 -217 q-21 -26 -29.5 -47t-4.5 -33t20 -14q-16 -9 -41 -9.5t-54 12t-46 38.5q-11 15 -11 28z" />
<glyph unicode="y" horiz-adv-x="847" d="M-66 -813q1 15 6 34t10 34.5t15.5 42t16.5 40t19.5 45t18.5 42.5q111 244 297 565.5t377 541.5q-19 -19 -70.5 -72t-77.5 -79.5t-75.5 -76t-79.5 -78t-73.5 -69t-73.5 -64t-63 -48.5t-59 -38t-46 -17h-17q-27 0 -61.5 34.5t-34.5 69.5q0 63 68.5 195.5t161.5 261.5 q51 73 107.5 137t96.5 96q13 13 29 13q37 0 82 -47t45 -86q0 -4 -7 -1l-4 2t-5.5 2t-6.5 1h-2q-42 0 -184 -187q-79 -103 -142 -217t-63 -158q66 28 189 129t215 191q17 17 165.5 167.5t215.5 203.5q14 12 30 12q36 0 81.5 -47.5t45.5 -85.5q0 -2 -1 -2.5t-3 0t-4.5 2 t-6 2.5t-7.5 2h-3q-25 0 -69 -47q-30 -32 -66 -73.5t-60.5 -71.5t-69 -86t-64.5 -80q-105 -131 -289 -446t-317 -564q113 156 291 327.5t227 186.5l10 -12q-103 -82 -210.5 -202.5t-185 -230.5t-129.5 -200t-61 -129q-6 -6 -22 -6h-9q-48 0 -74 49q-25 45 -25 79q0 7 1 13z " />
<glyph unicode="z" horiz-adv-x="802" d="M-90 117q42 78 198 200t328.5 222.5t270.5 128.5q-95 -29 -211 -29q-140 0 -185 33q-17 16 -17 36q0 18 15 42q31 48 84 61q-5 -11 -5 -21q0 -38 60 -68q66 -33 149 -33q13 0 26 1q83 5 167 44.5t99 64.5q8 12 38 -20q30 -33 52 -77q14 -29 14 -46q0 -10 -4 -17 q-75 -10 -257.5 -104t-358.5 -209.5t-238 -182.5q74 41 219 41q84 0 159.5 -16.5t144 -59t100.5 -106.5q7 -16 -1 -16q-3 -1 -7 4q-38 66 -120.5 98.5t-228.5 32.5q-71 0 -143 -22t-116.5 -48.5t-80.5 -48.5t-45 -22q-25 0 -72 58q-37 45 -37 68q0 6 3 11z" />
<glyph unicode="{" horiz-adv-x="0" d="M-2466 -666q-1 77 149 151t384.5 129.5t530 102t574 75.5t527.5 44q350 19 715 19q733 0 1233 -58q254 -29 533 -88t335 -94q-576 109 -961 131q-549 33 -888 33q-409 0 -809 -33q-584 -47 -1078 -132t-774 -182t-280 -182q0 -35 47 -63q-94 4 -165 48.5t-73 98.5z" />
<glyph unicode="|" horiz-adv-x="778" d="M289 49q0 152 38 431t96.5 563.5t143 494t164.5 209.5q60 0 121 -21q-33 1 -83 -106.5t-101 -275.5t-103.5 -376.5t-92.5 -406t-65.5 -367t-25.5 -257.5q0 -87 31 -87q5 0 10 1.5t10.5 5t9.5 6.5t10 9.5t9 9t9.5 11t8 10.5t7.5 11l6 8q-49 -125 -111 -125q-22 0 -39 12 t-26.5 37t-15.5 46t-8 57.5t-2.5 52t-0.5 47.5z" />
<glyph unicode="}" horiz-adv-x="0" d="M-1507 -604q-2 69 106 134t276.5 114.5t381.5 90.5t413 66.5t379 38.5q232 17 529 17q517 0 874 -52q200 -28 394.5 -76.5t230.5 -84.5q1 -2 -20 2.5t-60.5 13.5t-91 20t-115.5 23.5t-129.5 23.5t-139 20t-137.5 13q-371 25 -581 25q-306 0 -625 -33 q-420 -42 -776 -117.5t-559 -161.5t-203 -161q0 -28 35 -55q-66 5 -123.5 48.5t-58.5 90.5z" />
<glyph unicode="&#xa1;" horiz-adv-x="1050" d="M158 -23q40 -16 174 133.5t273.5 344t250.5 372.5t111 215q0 4 -5 7.5t-10 3.5q-8 0 -21 -7.5t-21.5 -14t-8.5 -5.5q0 4 14.5 20t39 32t44.5 16q23 0 36.5 -18.5t13.5 -43.5q0 -88 -94.5 -280.5t-218 -379.5t-248 -330.5t-179.5 -143.5q-52 0 -85.5 20t-65.5 59z M973 1264q30 6 69 52.5t69 91.5t38 46q32 6 62 -14.5t38 -50.5q8 -44 -34.5 -109.5t-88.5 -77.5q-34 -5 -87 15t-66 47z" />
<glyph unicode="&#xa2;" horiz-adv-x="1261" d="M262 279q0 99 46.5 207t120 200.5t166.5 177.5t185 144.5t175.5 95t138.5 35.5q20 0 35 -1.5t19 -3.5l5 -1q237 276 305 276q38 0 68 -22t37 -39q-13 3 -44 -17.5t-100.5 -83t-179.5 -172.5q23 -32 23 -76q0 -42 -40 -108t-83 -113t-56 -47q-4 2 -6 6q6 0 35.5 39.5 t59.5 100t30 104.5q0 32 -14 39q-174 -188 -340.5 -407t-272.5 -400q97 20 194 63.5t166.5 91.5t124 93t84.5 75l30 29q4 0 4 -6q0 -5 -35.5 -43.5t-101 -98t-145.5 -120.5t-183.5 -117t-200.5 -82l-117 -231q0 35 78 231q-211 0 -211 181zM416 274q0 -17 6 -29t14.5 -18.5 t24 -10.5t28 -5t33.5 -2q106 212 229 395.5t277 380.5q-31 -9 -102 -61.5t-157 -133.5t-166 -170.5t-133.5 -184t-53.5 -161.5z" />
<glyph unicode="&#xa3;" horiz-adv-x="1802" d="M219 -109q10 100 109 279t256 389q-195 -47 -183 -100q4 -15 27 -31q-44 3 -79.5 15.5t-55 29.5t-32.5 36t-11.5 35.5t8.5 28.5q22 37 141.5 65.5t282.5 45.5q164 204 336 377.5t353 302t317 158.5q56 12 102 12q81 0 124.5 -37.5t43.5 -105.5q0 -105 -105 -260 t-313 -332q147 168 238.5 314.5t91.5 225.5q0 87 -117 70q-106 -17 -258.5 -126t-300 -256t-297.5 -327q45 2 141 2q243 0 473.5 -26t292.5 -55q-184 16 -370 16q-335 0 -619 -39q-135 -167 -230.5 -314t-121.5 -229q79 21 172 21q119 0 380 -43t380 -43q243 0 356 131 q-28 -57 -78 -96.5t-119.5 -60.5t-143 -29.5t-165.5 -8.5q-103 0 -309.5 14.5t-292.5 14.5q-162 0 -250 -37.5t-94 -134.5q0 -21 -27 5q-38 36 -50 79q-4 13 -3 24z" />
<glyph unicode="&#xa4;" horiz-adv-x="1394" d="M270 319v7q0 21 57.5 109t133.5 169q-12 56 -10 92q14 142 72 242t163 182q-54 96 -87 186t-41 134t-1 43q6 -1 48 -60.5t96 -132.5t83 -98q58 36 135 56t136 14q111 -10 174 -86q100 68 235.5 126t200.5 52q23 -6 23 -8q-92 -44 -165 -90t-112 -79.5t-66 -60.5 l-40.5 -40.5t-20.5 -12.5q-14 0 -18 4q0 -33 -2 -49q-3 -39 -20.5 -86.5t-35 -77t-24.5 -29.5q0 2 2 4q0 1 15 54t20 104q6 70 -26.5 123t-92.5 59q-76 8 -164 -37.5t-156.5 -115.5t-116.5 -149.5t-53 -137.5q-4 -30 -1.5 -58t11 -50.5t32.5 -38t63 -19.5q60 -6 126.5 19.5 t121 65t100.5 80t78.5 68.5t42.5 27q10 0 10 -14q-3 -23 -59 -101t-82 -104q19 -49 82.5 -135t116 -152.5t51.5 -78.5l-2 -2q-24 2 -105 62t-154.5 131t-76.5 99q-64 -37 -97 -54t-91 -32.5t-115 -9.5q-31 4 -75.5 23t-68.5 47q-32 -21 -93 -68t-105.5 -81t-51.5 -34z" />
<glyph unicode="&#xa5;" horiz-adv-x="2584" d="M145 750q0 70 85 183t225.5 232t302 225t335 174t304.5 68q282 0 282 -221q0 -44 -8.5 -84t-37.5 -99t-46.5 -91t-76 -127t-85.5 -140q116 121 233 228.5t279 231t317.5 211t338.5 146t352 58.5q74 0 132.5 -16.5t90 -39.5t52.5 -49.5t27.5 -44t6.5 -26.5l-3 3 q-73 109 -233 124q-23 2 -48 2q-166 0 -361.5 -74.5t-384 -200.5t-362 -277t-324.5 -319q82 0 174 -21t146.5 -44.5t54.5 -34.5q0 -2 -2 -2t-32 9.5t-94 19.5t-147 10q-120 0 -168 -10l-108 -123h100q141 0 298 -19t250 -40.5t93 -32.5q0 -2 -33 0.5t-117.5 7t-178.5 4.5 q-302 0 -504 -29q-98 -125 -203 -282t-165 -258t-60 -111q20 0 41.5 4.5t34 9.5t25.5 10.5t15 6.5q-82 -74 -145 -74q-25 0 -36 13.5t-11 47.5q0 30 10 69.5t31 90t39 90.5t51 100t48.5 88t49.5 86t37 64q-87 -12 -246 -67q-1 -1 2 -3t8 -5.5t11.5 -7t14 -6.5t14.5 -5 q-3 -6 -44.5 -11t-76.5 -5q-37 0 -68 26.5t-31 42.5q0 31 97 69.5t208.5 64.5t190.5 36q10 20 53 84q-11 -3 -43.5 -10.5t-59.5 -14.5t-56.5 -17.5t-46.5 -24t-17 -29.5q0 -1 -3.5 3.5t-9 12t-10.5 16.5t-8.5 20t-3.5 20q0 76 312 132q4 1 5.5 1.5t4 1t4.5 0.5 q16 26 52.5 86.5t55 91t51.5 86t51 88t43.5 79t39.5 77t28.5 64.5t20.5 59t6 43q0 64 -43 92t-108 28q-96 0 -211.5 -44.5t-223.5 -116.5t-215.5 -160.5t-196.5 -178.5t-158 -168t-107.5 -132t-38.5 -68q0 -10 4 -16.5t9.5 -10t15 -5t15 -2t15.5 0t12 0.5q5 0 17.5 1.5 t20 1.5t7.5 -3q0 -5 -20.5 -17t-51 -22t-53.5 -10q-54 0 -89.5 26.5t-35.5 78.5z" />
<glyph unicode="&#xa7;" horiz-adv-x="1726" d="M-70 -369q0 69 62.5 145t155.5 138t194 114t184.5 80.5t120.5 28.5q-15 0 -81.5 -31t-155.5 -83t-174 -111.5t-144 -125.5t-59 -116q0 -55 131 -55q122 0 296 56t325 135t258.5 169t107.5 152q0 35 -26 60t-54 34t-55 12q-127 -26 -244 -26q-35 0 -75 3.5t-99 22.5 t-86 52q-90 8 -147.5 42.5t-57.5 96.5q0 72 49 149.5t126.5 143.5t174 125.5t192 102t179.5 65.5q-65 8 -115.5 47.5t-50.5 89.5q0 57 35 125t95.5 134t146.5 128.5t182.5 111t208 80t219.5 35.5q55 2 106 -10.5t92.5 -53.5t41.5 -106q0 -53 -39 -118.5t-98 -121t-137 -93 t-150 -37.5q-39 0 -68 17t-29 56q0 24 38.5 67.5t56.5 43.5q-11 -7 -22 -23.5t-11 -33.5q0 -23 12 -23q9 0 67 32.5t127.5 78.5t125 104.5t55.5 101.5q0 28 -27 40t-63 12q-100 0 -222 -50t-227.5 -124.5t-196.5 -155t-143.5 -147t-52.5 -95.5q0 -25 22.5 -43.5t52 -27.5 t69.5 -14t62.5 -6t43.5 -1q321 0 457.5 -49.5t136.5 -183.5q0 -73 -67.5 -157.5t-170 -156.5t-218.5 -130t-220 -89l21 -8q100 -60 100 -174q0 -86 -55 -169.5t-145 -149t-204 -121t-233.5 -92.5t-232.5 -57.5t-201 -20.5q-45 0 -89 7.5t-87.5 24.5t-70 50t-26.5 77z M408 416q0 -39 77 -64q0 75 88.5 168t207.5 165.5t239.5 122.5t185.5 50q-24 0 -126 -54t-217 -127.5t-206.5 -161.5t-91.5 -146q0 -54 154 -54q90 0 220.5 38t261 99t246 130.5t187.5 141t72 122.5q0 37 -29 64.5t-77.5 42.5t-94 22.5t-96.5 11.5q64 -40 64 -113 q0 -53 -39 -118.5t-98.5 -121t-137.5 -93t-149 -37.5q-39 0 -70 17t-31 54q0 23 39 68t55 45q-30 -35 -30 -61q0 -21 14 -21q8 0 66 32.5t127.5 78.5t125.5 104.5t56 100.5q0 30 -25 44.5t-59 14.5q-26 0 -62 -4q-115 -19 -242 -74.5t-231 -125.5t-190.5 -142.5t-135 -131.5 t-48.5 -87z" />
<glyph unicode="&#xa8;" horiz-adv-x="923" d="M461 872q-4 39 40.5 91t84.5 57q30 2 74 -21t53 -49q-27 -1 -66.5 -40t-71.5 -78.5t-38 -40.5q-29 0 -51.5 27t-24.5 54zM717 856q-3 41 41.5 92t87.5 56q31 2 74.5 -21.5t52.5 -50.5q-27 0 -66.5 -38.5t-72.5 -77.5t-41 -40q-26 -1 -49.5 26t-26.5 54z" />
<glyph unicode="&#xa9;" horiz-adv-x="1277" d="M422 926q0 132 81.5 281t204 268t276 197.5t288.5 78.5q85 0 140.5 -55t55.5 -144q0 -82 -36.5 -171t-71.5 -121q11 20 25.5 54t30.5 98t16 120q0 73 -43.5 114.5t-114.5 41.5q-73 0 -169 -44t-191 -121t-175.5 -170.5t-131 -204.5t-50.5 -212q0 -70 43.5 -104.5 t99.5 -34.5q281 0 660 463q4 0 4 -5q-2 -28 -42.5 -91.5t-112.5 -142t-158 -151t-192 -121.5t-200 -49q-63 0 -111 20.5t-74 54t-39 72t-13 79.5zM692 1057q0 80 53.5 165.5t130.5 149t163 105t149 41.5q25 0 54.5 -24t29.5 -44q0 -62 -119 -152q-2 -2 -4 2l2 3 q63 70 70 135q-63 -4 -160 -77.5t-168.5 -165.5t-71.5 -146q0 -10 12 -17.5t27 -7.5q67 0 172.5 64.5t245.5 171.5q7 2 8 -1l-2 -4q-121 -115 -255 -203.5t-232 -88.5q-40 0 -72.5 30.5t-32.5 63.5z" />
<glyph unicode="&#xab;" horiz-adv-x="2115" d="M287 303q-8 0 8.5 40t40.5 80t35 40q64 0 228.5 74t327 165.5t289.5 172t127 94.5q0 7 14.5 13.5t33.5 6.5q48 0 96.5 -20.5t48.5 -50.5q0 -36 -182.5 -136t-439.5 -222t-269 -128q123 -21 238 -67t194 -99t139.5 -108t89.5 -96.5t29 -61.5l-2 -4q-140 134 -391.5 223.5 t-521.5 89.5zM967 377q-7 0 8 35.5t36 71.5t29 36q76 0 292.5 106t398.5 217t182 128q0 6 12.5 12t28.5 6q43 0 87 -18t44 -45q0 -33 -162 -122.5t-397 -200.5t-240 -114q111 -19 214 -60t174 -88.5t125 -96t80 -85.5t26 -55l-2 -4q-124 120 -349.5 199.5t-468.5 79.5z" />
<glyph unicode="&#xad;" horiz-adv-x="1136" d="M381 530q0 35 121 50.5t250 15.5q83 0 189 -13.5t178.5 -32t72.5 -30.5q0 -6 -4 -6q-155 0 -326.5 -24t-282 -48t-118.5 -24q-33 0 -56.5 38.5t-23.5 73.5z" />
<glyph unicode="&#xae;" horiz-adv-x="1374" d="M440 926q0 132 81 281t203.5 268t276 197.5t289.5 78.5q85 0 141 -55t56 -144q0 -82 -36.5 -170.5t-70.5 -121.5q1 2 8.5 20t14.5 34.5t16.5 44t16 53.5t11.5 58t5 62q0 72 -44 114t-116 42q-73 0 -169 -44t-191 -121t-175.5 -170.5t-131 -204.5t-50.5 -212 q0 -70 44 -104.5t100 -34.5q125 0 293 108l43 29l-49 16q-52 20 -95 73t-67 114q-164 -195 -180 -195q-17 0 50.5 125t154 250t114.5 125q31 0 73 -35q36 -29 19 -36q-2 -1 -4 -1q-16 -3 -34 -16t-38 -35t-35.5 -41.5t-37.5 -49t-33 -42.5q34 13 115 56t161 98t80 83 q0 54 -84 54q-43 0 -84.5 -5.5t-72 -14.5t-60 -19.5t-47 -20t-34 -16.5t-21 -9t-6.5 3q0 12 52.5 39.5t136 52t153.5 24.5q143 0 159 -100q7 -39 -22 -79t-74 -69.5t-104 -56t-104 -42t-83 -25.5q3 -42 36 -101t81 -90q135 105 309 312q2 0 2 -5q-14 -71 -115.5 -189.5 t-195.5 -195.5q-84 -69 -191.5 -119.5t-199.5 -50.5q-64 0 -112.5 20.5t-75.5 54t-39.5 71.5t-12.5 80z" />
<glyph unicode="&#xb4;" horiz-adv-x="772" d="M330 809q-2 3 0 4q76 0 157.5 30t140 72.5t96.5 87.5t38 74q0 5 -1 10.5t-2 8t-1.5 4.5t1 3t5.5 1q38 0 91.5 -29t53.5 -57t-41.5 -67t-106.5 -75.5t-157.5 -62t-183.5 -25.5q-72 0 -90 21z" />
<glyph unicode="&#xb5;" horiz-adv-x="1034" d="M-510 -813q10 74 88 238q55 123 150 300.5t218.5 381.5t267.5 395t265 295q14 12 29 12q37 0 83 -47.5t46 -85.5q0 -2 -1 -2.5t-3 0t-4.5 2t-6.5 2.5l-8 2q-24 3 -71 -47q-195 -206 -424 -551q21 -17 89 21t151.5 106t151 127.5t112.5 103.5q34 32 109.5 108t137.5 135 t113 99q16 11 31 11q36 0 81.5 -46.5t45.5 -84.5q-2 -3 -2.5 -3t-8 3t-14.5 4q-22 0 -67 -48q-46 -49 -148 -180q-75 -105 -124.5 -198.5t-49.5 -133.5q45 0 146.5 75.5t238 196t164.5 142.5q6 4 11.5 2.5t6.5 -5.5t0 -7q-20 -18 -93.5 -90.5t-142.5 -137.5t-151 -136 t-151.5 -113.5t-110.5 -42.5q-24 0 -59 35t-35 69q0 59 63 182.5t158 258.5q-30 -30 -92.5 -95t-103 -106.5t-100 -100.5t-102.5 -96.5t-89.5 -74t-83 -54.5t-62.5 -18q-11 0 -22 3.5t-17.5 8t-11.5 9t-8 7.5l-2 2q-144 -231 -404 -708q117 159 347.5 390t277.5 245 q4 0 6 -3.5t2 -6.5v-3q-102 -82 -225.5 -221.5t-220 -271.5t-165 -241.5t-77.5 -147.5q-3 -6 -25 -6q-53 -5 -81.5 49t-22.5 92z" />
<glyph unicode="&#xb6;" horiz-adv-x="1542" d="M225 -362q-17 0 24 118.5t132.5 311.5t193.5 362q-31 -2 -43 -2q-73 0 -134.5 24t-103.5 79.5t-42 134.5q0 89 53.5 185.5t146.5 184.5t214.5 172.5t261 154t282.5 124.5t283 89t258 42q111 133 194 209t121 76q93 0 158 -76q-54 23 -256 -201q137 0 273 -16.5 t233.5 -40.5t175.5 -50t117 -44.5t39 -24.5q-14 4 -39 11.5t-105 26.5t-163 33t-204.5 26t-236.5 12q-66 0 -162 -7q-275 -291 -643 -766.5t-626 -864t-258 -466.5q0 -10 22 -10q26 0 66 18.5t67 34.5t27 13q0 -7 -31.5 -31.5t-78.5 -48t-81 -23.5q-10 0 -20 3t-20.5 17 t-10.5 37q0 116 144 383t356.5 573t443 604t416.5 507q-71 -9 -203 -35q-232 -289 -444.5 -588t-349.5 -517t-241 -395t-153.5 -268t-52.5 -91z" />
<glyph unicode="&#xb8;" horiz-adv-x="665" d="M-127 -610q41 15 117 54t163 91.5t159.5 115.5t93.5 113q29 74 -149 8q-27 -10 -28 -10q-6 0 -13.5 8.5t-6.5 14.5q2 13 99 129.5t110 116.5q15 0 12 -13q0 -8 -84 -133q48 19 94 19q56 0 87 -27.5t14 -85.5q-28 -90 -145 -178.5t-258 -146t-265 -76.5z" />
<glyph unicode="&#xbb;" horiz-adv-x="1888" d="M131 45q0 17 45 63.5t132.5 112.5t198.5 134.5t262 136.5t304 112q-127 83 -180 130q-99 89 -100 157q0 45 44 103q32 41 43 31q3 -3 3 -11q0 -50 59 -119t134 -125t144.5 -95.5t92.5 -39.5q14 -5 9 -34t-23 -63t-31 -34q-89 0 -199.5 -25.5t-216 -66t-212 -89.5 t-196 -98.5t-159.5 -90t-111 -66.5l-41 -25q-2 0 -2 2zM557 -53q0 19 49.5 70t145.5 123.5t218 147.5t288.5 149.5t334.5 123.5q-137 87 -195 138q-114 98 -114 175q0 49 48 113q33 44 46 36q4 -2 4 -11q0 -57 64 -133t147 -137.5t158.5 -104.5t101.5 -43q25 0 5 -62 q-20 -59 -44 -77q-4 -4 -8 -4q-98 0 -219 -28t-237 -72.5t-233 -98.5t-215.5 -108t-175 -98.5t-121.5 -72.5t-46 -28q-2 0 -2 2z" />
<glyph unicode="&#xbf;" horiz-adv-x="1759" d="M332 164q6 87 80 186t187 189.5t249 181t271 169t247 144.5t182 117.5t72 77.5q1 12 -10.5 15t-28.5 3q-12 0 -27.5 -4t-24.5 -7.5t-9 -2.5q2 17 42.5 38t75.5 21q44 1 71.5 -28.5t25.5 -69.5q-5 -70 -80.5 -146.5t-192 -147.5t-257 -145.5t-281 -150t-257 -150 t-192 -156.5t-80.5 -159q-3 -69 59.5 -103t166.5 -32q117 2 256 55.5t255 132t205.5 171t116.5 169.5q-24 0 -160 -72.5t-143 -84.5q9 22 78 82t151.5 113t120.5 53q35 0 73 -38.5t30 -84.5q-22 -116 -118 -224.5t-226.5 -183.5t-279 -121.5t-278.5 -48.5q-177 -3 -277 57.5 t-93 184.5zM1571 1481q22 1 57.5 30.5t65 65.5t56.5 65.5t34 30.5q30 1 56.5 -29t29.5 -61q3 -43 -55 -109.5t-105 -70.5q-33 -2 -82.5 24t-56.5 54z" />
<glyph unicode="&#xc0;" horiz-adv-x="2025" d="M-299 -262q0 60 27 99.5t55 39.5q-13 -11 -23 -33.5t-10 -42.5q0 -64 40.5 -94.5t109.5 -30.5q90 0 195.5 35.5t215 101.5t211.5 139t215 170.5t194.5 171t180 166t143.5 132.5q-154 -17 -290 -45.5t-225 -58.5t-154 -61t-93.5 -54.5t-27.5 -36.5q-1 -21 -33 -7 q-42 19 -68 65q-15 27 -16 55q-2 40 52.5 75t147 59t200.5 43.5t228 31.5t213 18.5t171 9.5h2q247 247 897 920q60 63 94.5 88.5t69.5 25.5q45 0 93 -34.5t56 -55.5q-29 -4 -48.5 -17.5t-47.5 -43.5q-98 -103 -259 -373.5t-275 -546.5q108 -14 223 -42.5t137 -49.5 q0 -1 -51 7.5t-146.5 22t-179.5 19.5h-2q-82 -171 -171.5 -429t-80.5 -349q2 -25 31 -25q27 0 57 8t68 23t49 19q-114 -105 -211 -105q-46 0 -93.5 39t-51.5 80q-15 127 50.5 337.5t155.5 411.5h-77q-166 0 -281 -12q-54 -50 -172.5 -171.5t-224.5 -229.5t-250 -238 t-269 -223t-261 -156t-244 -63q-95 0 -170.5 56.5t-75.5 158.5zM1456 688q148 0 295 -12q79 167 212 412.5t212 355.5q-16 -14 -252 -263q-74 -78 -122.5 -129.5t-147 -155t-197.5 -208.5zM2292 2046q0 27 54 56.5t91 29.5q4 0 5.5 -1t1 -3t-1.5 -4.5t-2 -8t-1 -10.5 q0 -29 38 -74t96.5 -87.5t140 -72.5t157.5 -30q7 0 -3 -6q-23 -16 -87 -16q-91 0 -183.5 25t-157.5 61t-106.5 74.5t-41.5 66.5z" />
<glyph unicode="&#xc1;" horiz-adv-x="2025" d="M-299 -262q0 60 27 99.5t55 39.5q-13 -11 -23 -33.5t-10 -42.5q0 -64 40.5 -94.5t109.5 -30.5q90 0 195.5 35.5t215 101.5t211.5 139t215 170.5t194.5 171t180 166t143.5 132.5q-154 -17 -290 -45.5t-225 -58.5t-154 -61t-93.5 -54.5t-27.5 -36.5q-1 -21 -33 -7 q-42 19 -68 65q-15 27 -16 55q-2 40 52.5 75t147 59t200.5 43.5t228 31.5t213 18.5t171 9.5h2q247 247 897 920q60 63 94.5 88.5t69.5 25.5q45 0 93 -34.5t56 -55.5q-29 -4 -48.5 -17.5t-47.5 -43.5q-98 -103 -259 -373.5t-275 -546.5q108 -14 223 -42.5t137 -49.5 q0 -1 -51 7.5t-146.5 22t-179.5 19.5h-2q-82 -171 -171.5 -429t-80.5 -349q2 -25 31 -25q27 0 57 8t68 23t49 19q-114 -105 -211 -105q-46 0 -93.5 39t-51.5 80q-15 127 50.5 337.5t155.5 411.5h-77q-166 0 -281 -12q-54 -50 -172.5 -171.5t-224.5 -229.5t-250 -238 t-269 -223t-261 -156t-244 -63q-95 0 -170.5 56.5t-75.5 158.5zM1456 688q148 0 295 -12q79 167 212 412.5t212 355.5q-16 -14 -252 -263q-74 -78 -122.5 -129.5t-147 -155t-197.5 -208.5zM2144 1876q76 -10 161.5 10t149.5 55t107.5 75t46.5 69q2 9 -1 19q-2 4 -0.5 5 t7.5 0q34 -3 84.5 -39t46.5 -63q-3 -28 -48.5 -62t-114.5 -61.5t-164.5 -41.5t-186.5 -3q-35 4 -57 13.5t-28.5 16.5t-2.5 7z" />
<glyph unicode="&#xc2;" horiz-adv-x="2025" d="M-299 -262q0 60 27 99.5t55 39.5q-13 -11 -23 -33.5t-10 -42.5q0 -64 40.5 -94.5t109.5 -30.5q90 0 195.5 35.5t215 101.5t211.5 139t215 170.5t194.5 171t180 166t143.5 132.5q-154 -17 -290 -45.5t-225 -58.5t-154 -61t-93.5 -54.5t-27.5 -36.5q-1 -21 -33 -7 q-42 19 -68 65q-15 27 -16 55q-2 40 52.5 75t147 59t200.5 43.5t228 31.5t213 18.5t171 9.5h2q247 247 897 920q60 63 94.5 88.5t69.5 25.5q45 0 93 -34.5t56 -55.5q-29 -4 -48.5 -17.5t-47.5 -43.5q-98 -103 -259 -373.5t-275 -546.5q108 -14 223 -42.5t137 -49.5 q0 -1 -51 7.5t-146.5 22t-179.5 19.5h-2q-82 -171 -171.5 -429t-80.5 -349q2 -25 31 -25q27 0 57 8t68 23t49 19q-114 -105 -211 -105q-46 0 -93.5 39t-51.5 80q-15 127 50.5 337.5t155.5 411.5h-77q-166 0 -281 -12q-54 -50 -172.5 -171.5t-224.5 -229.5t-250 -238 t-269 -223t-261 -156t-244 -63q-95 0 -170.5 56.5t-75.5 158.5zM1456 688q148 0 295 -12q79 167 212 412.5t212 355.5q-16 -14 -252 -263q-74 -78 -122.5 -129.5t-147 -155t-197.5 -208.5zM2040 1790q130 24 272.5 109t222.5 178q8 11 56.5 -16.5t42.5 -43.5 q-20 -69 17.5 -158.5t94.5 -111.5q6 -8 -8 -8q-51 -2 -132.5 57t-104.5 139q-98 -72 -226 -112.5t-211 -38.5q-12 -3 -24 6z" />
<glyph unicode="&#xc3;" horiz-adv-x="2025" d="M-299 -262q0 60 27 99.5t55 39.5q-13 -11 -23 -33.5t-10 -42.5q0 -64 40.5 -94.5t109.5 -30.5q90 0 195.5 35.5t215 101.5t211.5 139t215 170.5t194.5 171t180 166t143.5 132.5q-154 -17 -290 -45.5t-225 -58.5t-154 -61t-93.5 -54.5t-27.5 -36.5q-1 -21 -33 -7 q-42 19 -68 65q-15 27 -16 55q-2 40 52.5 75t147 59t200.5 43.5t228 31.5t213 18.5t171 9.5h2q247 247 897 920q60 63 94.5 88.5t69.5 25.5q45 0 93 -34.5t56 -55.5q-29 -4 -48.5 -17.5t-47.5 -43.5q-98 -103 -259 -373.5t-275 -546.5q108 -14 223 -42.5t137 -49.5 q0 -1 -51 7.5t-146.5 22t-179.5 19.5h-2q-82 -171 -171.5 -429t-80.5 -349q2 -25 31 -25q27 0 57 8t68 23t49 19q-114 -105 -211 -105q-46 0 -93.5 39t-51.5 80q-15 127 50.5 337.5t155.5 411.5h-77q-166 0 -281 -12q-54 -50 -172.5 -171.5t-224.5 -229.5t-250 -238 t-269 -223t-261 -156t-244 -63q-95 0 -170.5 56.5t-75.5 158.5zM1456 688q148 0 295 -12q79 167 212 412.5t212 355.5q-16 -14 -252 -263q-74 -78 -122.5 -129.5t-147 -155t-197.5 -208.5zM2159 1823q-16 67 40 130.5t150 63.5q57 0 107 -21.5t100 -51.5t86 -41 q68 -20 150 22.5t124 95.5q-14 -28 -40 -61t-62.5 -66t-84.5 -53.5t-95 -17.5q-52 3 -148 37t-116 38q-45 9 -68 9q-101 0 -143 -84z" />
<glyph unicode="&#xc4;" horiz-adv-x="2025" d="M-299 -262q0 60 27 99.5t55 39.5q-13 -11 -23 -33.5t-10 -42.5q0 -64 40.5 -94.5t109.5 -30.5q90 0 195.5 35.5t215 101.5t211.5 139t215 170.5t194.5 171t180 166t143.5 132.5q-154 -17 -290 -45.5t-225 -58.5t-154 -61t-93.5 -54.5t-27.5 -36.5q-1 -21 -33 -7 q-42 19 -68 65q-15 27 -16 55q-2 40 52.5 75t147 59t200.5 43.5t228 31.5t213 18.5t171 9.5h2q247 247 897 920q60 63 94.5 88.5t69.5 25.5q45 0 93 -34.5t56 -55.5q-29 -4 -48.5 -17.5t-47.5 -43.5q-98 -103 -259 -373.5t-275 -546.5q108 -14 223 -42.5t137 -49.5 q0 -1 -51 7.5t-146.5 22t-179.5 19.5h-2q-82 -171 -171.5 -429t-80.5 -349q2 -25 31 -25q27 0 57 8t68 23t49 19q-114 -105 -211 -105q-46 0 -93.5 39t-51.5 80q-15 127 50.5 337.5t155.5 411.5h-77q-166 0 -281 -12q-54 -50 -172.5 -171.5t-224.5 -229.5t-250 -238 t-269 -223t-261 -156t-244 -63q-95 0 -170.5 56.5t-75.5 158.5zM1456 688q148 0 295 -12q79 167 212 412.5t212 355.5q-16 -14 -252 -263q-74 -78 -122.5 -129.5t-147 -155t-197.5 -208.5zM2316 1921q-3 40 41.5 91.5t87.5 55.5q30 2 74.5 -20.5t54.5 -48.5 q-27 -1 -67.5 -40.5t-73.5 -79t-41 -40.5q-27 0 -50 27.5t-26 54.5zM2576 1905q-2 41 42 92t85 55q31 2 75.5 -21.5t53.5 -50.5q-27 0 -67 -38.5t-72.5 -77t-38.5 -39.5q-27 -1 -51 26t-27 54z" />
<glyph unicode="&#xc5;" horiz-adv-x="2025" d="M-299 -262q0 60 27 99.5t55 39.5q-13 -11 -23 -33.5t-10 -42.5q0 -64 40.5 -94.5t109.5 -30.5q90 0 195.5 35.5t215 101.5t211.5 139t215 170.5t194.5 171t180 166t143.5 132.5q-154 -17 -290 -45.5t-225 -58.5t-154 -61t-93.5 -54.5t-27.5 -36.5q-1 -21 -33 -7 q-42 19 -68 65q-15 27 -16 55q-2 40 52.5 75t147 59t200.5 43.5t228 31.5t213 18.5t171 9.5h2q247 247 897 920q60 63 94.5 88.5t69.5 25.5q45 0 93 -34.5t56 -55.5q-29 -4 -48.5 -17.5t-47.5 -43.5q-98 -103 -259 -373.5t-275 -546.5q108 -14 223 -42.5t137 -49.5 q0 -1 -51 7.5t-146.5 22t-179.5 19.5h-2q-82 -171 -171.5 -429t-80.5 -349q2 -25 31 -25q27 0 57 8t68 23t49 19q-114 -105 -211 -105q-46 0 -93.5 39t-51.5 80q-15 127 50.5 337.5t155.5 411.5h-77q-166 0 -281 -12q-54 -50 -172.5 -171.5t-224.5 -229.5t-250 -238 t-269 -223t-261 -156t-244 -63q-95 0 -170.5 56.5t-75.5 158.5zM1456 688q148 0 295 -12q79 167 212 412.5t212 355.5q-16 -14 -252 -263q-74 -78 -122.5 -129.5t-147 -155t-197.5 -208.5zM2410 1911q0 64 50.5 135.5t125 119.5t140.5 48q44 0 72 -22.5t28 -71.5 q0 -22 -11 -47.5t-21 -40.5l-11 -15q-1 0 3 12.5t10 36.5t6 45q0 26 -12 40t-31 14q-55 0 -140.5 -94t-85.5 -154q0 -21 23 -21q31 0 65.5 12.5t61.5 30t49.5 34.5t36 29.5t14.5 12.5q4 -2 4 -8q0 -15 -24 -49.5t-60 -71.5t-85 -65.5t-91 -28.5q-56 0 -86.5 30.5t-30.5 88.5 z" />
<glyph unicode="&#xc6;" horiz-adv-x="3201" d="M-338 -262q0 60 27 99.5t55 39.5q-13 -11 -23 -33.5t-10 -42.5q0 -64 40.5 -94.5t109.5 -30.5q90 0 195.5 35.5t215 101.5t211.5 139t215.5 170.5t194.5 171t180 166t144 132.5q-154 -17 -290 -45.5t-225 -58.5t-154.5 -61t-94 -54.5t-27.5 -36.5q-1 -21 -33 -7 q-43 18 -68 64q-15 28 -16 56q-4 50 83 92t226 69t276 43t265 23q103 8 162 10h2q141 141 466.5 477t434.5 451q63 64 97 89.5t67 25.5q46 0 94.5 -35t57.5 -56q-35 -6 -64 -26q-111 -86 -254 -337.5t-319 -625.5q186 -27 295 -63q223 106 370 119q-34 4 -75.5 16.5t-90 38 t-86 59t-60 83t-15.5 106.5q17 130 129.5 260t267 223.5t329.5 152t316 58.5q50 0 90.5 -4.5t84.5 -19.5t73 -40.5t46.5 -69.5t14.5 -104q-4 -85 -62 -176.5t-141.5 -161t-183 -114.5t-182.5 -45q-35 0 -64 28.5t-26 59.5q1 29 54.5 76.5t90.5 60.5q-34 -34 -53 -75 q-8 -19 0 -19q32 0 114.5 39t172 97t160 135.5t73.5 143.5q1 41 -21 70.5t-59 43t-73 19t-76 5.5q-122 0 -283 -72.5t-294 -172.5t-227 -210.5t-95 -181.5q-1 -52 31 -93.5t80 -65t110 -39t114.5 -20.5t100.5 -5q13 0 -5 -33q-27 -48 -66 -62l-21 -4q-91 0 -210 -41.5 t-237.5 -109t-234.5 -155t-205 -176.5t-144.5 -177.5t-56.5 -153.5q-2 -63 40 -101.5t128 -47.5q116 -13 292.5 41t359.5 146t377.5 210.5t350 228t273.5 205.5q3 0 5.5 -7.5t-1.5 -10.5q-68 -65 -175.5 -154.5t-254.5 -200.5t-313.5 -216t-333 -192.5t-333.5 -140 t-296 -49.5q-138 3 -223 78t-90 187q-7 133 59 351.5t150 409.5h-78q-166 0 -281 -12q-54 -50 -172.5 -171.5t-224.5 -229.5t-250 -238t-269 -223t-261 -156t-244 -63q-95 0 -170.5 56.5t-75.5 158.5zM1417 688q148 0 295 -12q79 167 212 412.5t212 355.5q-16 -14 -252 -263 q-74 -78 -122.5 -129.5t-147 -155t-197.5 -208.5zM1757 305q176 149 412 266q-217 30 -283 35q-53 -101 -129 -301z" />
<glyph unicode="&#xc7;" horiz-adv-x="1785" d="M65 -946q0 4 3 4q29 0 125 44.5t198.5 115t130.5 125.5q15 27 8.5 42t-18.5 20t-29 5q-34 0 -76.5 -11.5t-72.5 -33.5q-4 -3 -12.5 6t-12.5 23t2 31q18 37 83.5 99.5t158.5 110.5h-12q-68 1 -127.5 13.5t-112.5 40t-92 67t-62.5 98.5t-27.5 132q-10 173 76 374t233.5 385 t345.5 357t405 299.5t418.5 203t380.5 76.5q138 0 219.5 -59t81.5 -174q0 -98 -88 -215t-212 -196t-222 -79q-38 0 -62 40.5t-24 91.5q0 33 49 86t66 53q1 0 -12.5 -19.5t-25 -42.5t-5.5 -30q52 0 130.5 31.5t152 79.5t126 113t52.5 124q0 69 -55 107t-152 38 q-153 0 -347 -82.5t-382 -215.5t-368.5 -308t-314.5 -354.5t-211 -360.5t-67 -319q5 -63 30 -106.5t66.5 -67.5t91 -34.5t113.5 -10.5q185 0 449 104t532 269t516 366q3 3 14 -5q6 -5 3 -7q-122 -120 -292.5 -251.5t-361 -253.5t-394 -214.5t-365.5 -124.5 q-77 -14 -147.5 -57.5t-106.5 -106.5q53 31 123 31q20 0 39.5 -4t44 -15t35 -38t1.5 -66q-16 -64 -95 -130.5t-177 -113t-195 -76.5t-153 -30q-14 0 -13 6z" />
<glyph unicode="&#xc8;" horiz-adv-x="1685" d="M10 -117q12 100 77 203t161 189.5t213 164t233.5 133t221.5 90.5t178 42q-34 4 -76 16.5t-90.5 38t-86.5 59t-60 83t-15 106.5q17 130 129.5 260t267 223.5t329.5 152t316 58.5q50 0 90.5 -4.5t85 -20t73.5 -40.5t46.5 -69t14.5 -104q-6 -113 -101 -231t-227 -192 t-244 -74q-34 0 -62.5 28.5t-25.5 59.5q1 29 55 76.5t91 60.5q-35 -35 -53 -75q-9 -19 -1 -19q25 0 84 24.5t131.5 68t140 95t114 113t48.5 114.5q1 41 -20 70.5t-58 43t-72.5 19t-76.5 5.5q-98 0 -223 -47t-240 -122t-214 -160t-159 -169t-61 -141q-1 -65 45.5 -111.5 t119.5 -68.5t139.5 -31.5t129.5 -9.5q13 0 -6 -33q-27 -47 -65 -62q-11 -4 -21 -4q-91 0 -210 -41.5t-236.5 -108t-233 -154t-203.5 -176t-143.5 -176.5t-56.5 -153q-2 -63 40 -101.5t128 -47.5q116 -13 292 40.5t358.5 145t376 209.5t349 227.5t272.5 204.5q3 0 5 -7.5 t-1 -10.5q-83 -81 -219.5 -192.5t-332 -249t-390.5 -250.5t-402 -188.5t-360 -72.5q-149 3 -236.5 88t-72.5 205zM1610 2019q0 27 53 56.5t90 29.5q7 0 7.5 -2t-2.5 -9t-3 -15q0 -29 38.5 -74t97.5 -87.5t140.5 -72.5t157.5 -30q5 0 -1.5 -5.5t-29.5 -11.5t-59 -6 q-92 0 -184.5 25t-157.5 61t-106 74.5t-41 66.5z" />
<glyph unicode="&#xc9;" horiz-adv-x="1685" d="M10 -117q12 100 77 203t161 189.5t213 164t233.5 133t221.5 90.5t178 42q-34 4 -76 16.5t-90.5 38t-86.5 59t-60 83t-15 106.5q17 130 129.5 260t267 223.5t329.5 152t316 58.5q50 0 90.5 -4.5t85 -20t73.5 -40.5t46.5 -69t14.5 -104q-6 -113 -101 -231t-227 -192 t-244 -74q-34 0 -62.5 28.5t-25.5 59.5q1 29 55 76.5t91 60.5q-35 -35 -53 -75q-9 -19 -1 -19q25 0 84 24.5t131.5 68t140 95t114 113t48.5 114.5q1 41 -20 70.5t-58 43t-72.5 19t-76.5 5.5q-98 0 -223 -47t-240 -122t-214 -160t-159 -169t-61 -141q-1 -65 45.5 -111.5 t119.5 -68.5t139.5 -31.5t129.5 -9.5q13 0 -6 -33q-27 -47 -65 -62q-11 -4 -21 -4q-91 0 -210 -41.5t-236.5 -108t-233 -154t-203.5 -176t-143.5 -176.5t-56.5 -153q-2 -63 40 -101.5t128 -47.5q116 -13 292 40.5t358.5 145t376 209.5t349 227.5t272.5 204.5q3 0 5 -7.5 t-1 -10.5q-83 -81 -219.5 -192.5t-332 -249t-390.5 -250.5t-402 -188.5t-360 -72.5q-149 3 -236.5 88t-72.5 205zM1468 1871q-1 2 0 3q23 -4 68 -4q99 0 210.5 35t183.5 80.5t79 78.5q1 8 0.5 13t-1.5 8t1 4t8 0q35 -5 85 -41t46 -59q-5 -31 -73.5 -68t-181 -64.5 t-222.5 -27.5q-63 0 -112 8q-74 11 -91 34z" />
<glyph unicode="&#xca;" horiz-adv-x="1685" d="M10 -117q12 100 77 203t161 189.5t213 164t233.5 133t221.5 90.5t178 42q-34 4 -76 16.5t-90.5 38t-86.5 59t-60 83t-15 106.5q17 130 129.5 260t267 223.5t329.5 152t316 58.5q50 0 90.5 -4.5t85 -20t73.5 -40.5t46.5 -69t14.5 -104q-6 -113 -101 -231t-227 -192 t-244 -74q-34 0 -62.5 28.5t-25.5 59.5q1 29 55 76.5t91 60.5q-35 -35 -53 -75q-9 -19 -1 -19q25 0 84 24.5t131.5 68t140 95t114 113t48.5 114.5q1 41 -20 70.5t-58 43t-72.5 19t-76.5 5.5q-98 0 -223 -47t-240 -122t-214 -160t-159 -169t-61 -141q-1 -65 45.5 -111.5 t119.5 -68.5t139.5 -31.5t129.5 -9.5q13 0 -6 -33q-27 -47 -65 -62q-11 -4 -21 -4q-91 0 -210 -41.5t-236.5 -108t-233 -154t-203.5 -176t-143.5 -176.5t-56.5 -153q-2 -63 40 -101.5t128 -47.5q116 -13 292 40.5t358.5 145t376 209.5t349 227.5t272.5 204.5q3 0 5 -7.5 t-1 -10.5q-83 -81 -219.5 -192.5t-332 -249t-390.5 -250.5t-402 -188.5t-360 -72.5q-149 3 -236.5 88t-72.5 205zM1409 1808q130 24 273 109t223 178q8 11 56 -16t42 -43q-20 -69 18 -159t95 -112l1 -5q-4 -3 -10 -3q-51 -2 -132.5 57.5t-104.5 139.5q-98 -72 -225.5 -113 t-210.5 -39q-11 -2 -25 6z" />
<glyph unicode="&#xcb;" horiz-adv-x="1685" d="M10 -117q12 100 77 203t161 189.5t213 164t233.5 133t221.5 90.5t178 42q-34 4 -76 16.5t-90.5 38t-86.5 59t-60 83t-15 106.5q17 130 129.5 260t267 223.5t329.5 152t316 58.5q50 0 90.5 -4.5t85 -20t73.5 -40.5t46.5 -69t14.5 -104q-6 -113 -101 -231t-227 -192 t-244 -74q-34 0 -62.5 28.5t-25.5 59.5q1 29 55 76.5t91 60.5q-35 -35 -53 -75q-9 -19 -1 -19q25 0 84 24.5t131.5 68t140 95t114 113t48.5 114.5q1 41 -20 70.5t-58 43t-72.5 19t-76.5 5.5q-98 0 -223 -47t-240 -122t-214 -160t-159 -169t-61 -141q-1 -65 45.5 -111.5 t119.5 -68.5t139.5 -31.5t129.5 -9.5q13 0 -6 -33q-27 -47 -65 -62q-11 -4 -21 -4q-91 0 -210 -41.5t-236.5 -108t-233 -154t-203.5 -176t-143.5 -176.5t-56.5 -153q-2 -63 40 -101.5t128 -47.5q116 -13 292 40.5t358.5 145t376 209.5t349 227.5t272.5 204.5q3 0 5 -7.5 t-1 -10.5q-83 -81 -219.5 -192.5t-332 -249t-390.5 -250.5t-402 -188.5t-360 -72.5q-149 3 -236.5 88t-72.5 205zM1663 1896q-3 40 41.5 92t85.5 56q29 2 75 -21t54 -49q-21 -1 -51 -25.5t-54.5 -54t-46.5 -54t-28 -25.5q-28 0 -51 27t-25 54zM1921 1880q-2 42 42.5 93 t86.5 55q29 2 73 -21.5t54 -50.5q-21 0 -50.5 -24t-54 -53t-46 -53.5t-27.5 -25.5q-29 -1 -52 25.5t-26 54.5z" />
<glyph unicode="&#xcc;" horiz-adv-x="1646" d="M70 381q-1 110 90 257t239.5 294t344 292t396 256.5t404.5 181t361 71.5q102 1 150 -46t50 -126q1 -81 -65.5 -215t-168.5 -279t-227.5 -311.5t-237.5 -309.5t-203.5 -276.5t-121.5 -208.5q98 84 281.5 228.5t396.5 297.5t287 179q-80 -52 -281.5 -213.5t-416 -344.5 t-378.5 -346.5t-163 -207.5q0 -22 -52 2q-54 26 -71 54q-4 6 -4 11q-1 93 136.5 314.5t333 478t391.5 507t333.5 444.5t136.5 247q0 52 -30 69t-83 17q-116 -1 -292.5 -79.5t-362 -201.5t-373.5 -278t-334 -305t-238 -287t-91 -221q0 -17 17 -22t59 -5q14 0 52.5 7t39.5 7 q0 -8 -28 -25t-71.5 -31.5t-78.5 -14.5q-60 -1 -92.5 43t-34.5 96zM1792 2066q0 27 54 56.5t91 29.5q4 0 5.5 -0.5t1 -3t-1.5 -5t-2 -7.5t-1 -10q0 -30 38 -74.5t97 -87t141 -72.5t159 -30q5 0 -2 -6t-31 -12.5t-60 -6.5q-92 0 -184.5 25.5t-157.5 61.5t-106 75t-41 67z" />
<glyph unicode="&#xcd;" horiz-adv-x="1646" d="M70 381q-1 110 90 257t239.5 294t344 292t396 256.5t404.5 181t361 71.5q102 1 150 -46t50 -126q1 -81 -65.5 -215t-168.5 -279t-227.5 -311.5t-237.5 -309.5t-203.5 -276.5t-121.5 -208.5q98 84 281.5 228.5t396.5 297.5t287 179q-80 -52 -281.5 -213.5t-416 -344.5 t-378.5 -346.5t-163 -207.5q0 -22 -52 2q-54 26 -71 54q-4 6 -4 11q-1 93 136.5 314.5t333 478t391.5 507t333.5 444.5t136.5 247q0 52 -30 69t-83 17q-116 -1 -292.5 -79.5t-362 -201.5t-373.5 -278t-334 -305t-238 -287t-91 -221q0 -17 17 -22t59 -5q14 0 52.5 7t39.5 7 q0 -8 -28 -25t-71.5 -31.5t-78.5 -14.5q-60 -1 -92.5 43t-34.5 96zM1642 1894q77 0 159 30.5t141 73t97 87t38 74.5q0 5 -1 10t-2 7.5t-1.5 5t1 3t5.5 0.5q37 0 92 -29.5t55 -56.5q0 -28 -41.5 -67t-107 -75t-158.5 -61.5t-184 -25.5q-37 0 -60.5 6t-30.5 12t-2 6z" />
<glyph unicode="&#xce;" horiz-adv-x="1646" d="M70 381q-1 110 90 257t239.5 294t344 292t396 256.5t404.5 181t361 71.5q102 1 150 -46t50 -126q1 -81 -65.5 -215t-168.5 -279t-227.5 -311.5t-237.5 -309.5t-203.5 -276.5t-121.5 -208.5q98 84 281.5 228.5t396.5 297.5t287 179q-80 -52 -281.5 -213.5t-416 -344.5 t-378.5 -346.5t-163 -207.5q0 -22 -52 2q-54 26 -71 54q-4 6 -4 11q-1 93 136.5 314.5t333 478t391.5 507t333.5 444.5t136.5 247q0 52 -30 69t-83 17q-116 -1 -292.5 -79.5t-362 -201.5t-373.5 -278t-334 -305t-238 -287t-91 -221q0 -17 17 -22t59 -5q14 0 52.5 7t39.5 7 q0 -8 -28 -25t-71.5 -31.5t-78.5 -14.5q-60 -1 -92.5 43t-34.5 96zM1503 1855q130 24 273 109t223 178q8 11 56 -16t42 -43q-20 -69 18 -159t95 -112q6 -8 -8 -8q-51 -2 -133 57.5t-105 139.5q-98 -72 -225.5 -113t-210.5 -39q-11 -2 -25 6z" />
<glyph unicode="&#xcf;" horiz-adv-x="1646" d="M70 381q-1 110 90 257t239.5 294t344 292t396 256.5t404.5 181t361 71.5q102 1 150 -46t50 -126q1 -81 -65.5 -215t-168.5 -279t-227.5 -311.5t-237.5 -309.5t-203.5 -276.5t-121.5 -208.5q98 84 281.5 228.5t396.5 297.5t287 179q-80 -52 -281.5 -213.5t-416 -344.5 t-378.5 -346.5t-163 -207.5q0 -22 -52 2q-54 26 -71 54q-4 6 -4 11q-1 93 136.5 314.5t333 478t391.5 507t333.5 444.5t136.5 247q0 52 -30 69t-83 17q-116 -1 -292.5 -79.5t-362 -201.5t-373.5 -278t-334 -305t-238 -287t-91 -221q0 -17 17 -22t59 -5q14 0 52.5 7t39.5 7 q0 -8 -28 -25t-71.5 -31.5t-78.5 -14.5q-60 -1 -92.5 43t-34.5 96zM1778 1937q-3 40 41.5 92t85.5 56q30 2 75.5 -21t53.5 -49q-27 -1 -67.5 -40.5t-73.5 -79t-40 -40.5q-28 0 -50.5 27.5t-24.5 54.5zM2036 1921q-2 42 42.5 92.5t86.5 54.5q29 2 73.5 -21t55.5 -50 q-28 0 -68 -38.5t-72.5 -77.5t-39.5 -40q-27 -1 -51 26t-27 54z" />
<glyph unicode="&#xd0;" horiz-adv-x="2486" d="M2 -209q0 110 126 246.5t325 257t417 197.5q0 -2 -12 -11q-109 -51 -216 -112.5t-209.5 -135t-181 -146.5t-126 -150.5t-47.5 -143.5q0 -31 21.5 -52.5t57.5 -31.5t69 -14t69 -4q223 0 488.5 65t520.5 174t495.5 259.5t421.5 314t290.5 345t109.5 345.5q0 95 -54 174 t-142.5 130t-197.5 79.5t-224 30.5q-173 2 -358.5 -39.5t-336.5 -109.5t-274 -148t-191.5 -160.5t-68.5 -140.5q0 -84 66 -123q-68 0 -119 55.5t-51 128.5q0 90 68.5 180.5t187 165t268 133.5t322 91.5t337.5 33.5q416 2 657 -162t234 -448q-4 -169 -109 -350.5t-280 -344 t-412 -309.5t-496.5 -253.5t-543 -169t-541.5 -62.5q-55 0 -109.5 8.5t-115 29.5t-98 66.5t-37.5 110.5zM1071 174q0 65 93 234.5t233 369.5q-47 -6 -101.5 -14t-81 -12t-34.5 -4q-41 0 -70 34.5t-29 67.5q0 25 127 38t277 15q167 223 310.5 369.5t213.5 146.5 q39 0 83.5 -32t57.5 -54q-26 19 -155.5 -106t-308.5 -330q145 -9 268 -27.5t123 -31.5q0 -4 -9 -4q-174 0 -462 -29q-186 -217 -320.5 -402.5t-134.5 -230.5q58 0 119 31q-6 -22 -59 -56t-83 -34q-22 0 -39.5 16t-17.5 45z" />
<glyph unicode="&#xd1;" horiz-adv-x="2416" d="M55 608q0 80 80.5 197t212 239.5t306 246t354.5 219.5t366.5 156t333.5 60q145 0 222 -69.5t77 -196.5q0 -80 -73.5 -232t-197 -338.5t-235.5 -343t-237 -319.5q170 206 425.5 438.5t488 406.5t423 289.5t252.5 115.5q41 0 102 -64t58 -104q-13 24 -54 24 q-59 0 -226 -188.5t-352 -458t-292 -485.5q-119 -240 -119 -387q0 -64 21 -108.5t61.5 -69t90.5 -34.5t118 -10q41 0 61 2q83 4 180 33.5t157.5 57.5t149 75t107.5 56q-136 -116 -322 -188.5t-294 -80.5q-23 -2 -66 -2q-86 0 -154.5 18t-122.5 55.5t-83 101t-29 149.5 q0 236 189 592q105 201 246.5 404.5t269.5 342.5q-197 -114 -401.5 -262.5t-371 -293.5t-315.5 -291t-250 -263.5t-160 -202t-59 -114.5q0 -19 95 23l20 8q-36 -46 -99 -73.5t-102 -27.5q-26 0 -46.5 23.5t-20.5 52.5q0 72 107 254.5t260 402.5t306 441t260 409.5t107 268.5 q0 112 -172 112q-118 0 -264.5 -53.5t-288 -140.5t-284.5 -194.5t-263.5 -219t-214.5 -210.5t-147 -172t-53 -101q0 -18 11.5 -27.5t26.5 -9.5t51 5.5t50 10.5q0 -14 -68 -40.5t-104 -26.5q-45 0 -75 33t-30 79zM2124 1606q-18 67 38 130.5t150 63.5q57 0 107 -21.5 t100 -51.5t86 -41q69 -20 152 23t122 95q-30 -67 -111.5 -135t-170.5 -63q-52 3 -146.5 37t-115.5 38q-45 9 -68 9q-104 0 -143 -84z" />
<glyph unicode="&#xd2;" horiz-adv-x="2142" d="M274 -92q3 151 77.5 324t193.5 331t274 305.5t315 255.5t321 173t288 65q93 0 156 -41.5t63 -110.5q0 -26 -12 -61q3 44 -47 71t-109 27q-108 0 -256 -67.5t-299.5 -178t-301 -257t-266 -298.5t-190 -309.5t-75.5 -283.5q0 -187 231 -187q103 0 243.5 53.5t291.5 149 t306.5 219.5t294 271.5t247 297t172 306t63.5 288.5q0 387 -420 387q-138 0 -279.5 -33.5t-265 -90t-241.5 -131t-213.5 -157.5t-176.5 -168.5t-135.5 -164.5t-85 -145.5t-30.5 -110.5q0 -15 2 -27t4.5 -20t8.5 -15.5t9.5 -11.5t13 -8.5t13 -5.5t15.5 -5l15 -5 q-23 -13 -61 -13q-58 0 -103 49.5t-44 120.5q2 94 65 206.5t169 222.5t253 213.5t309 182t346 126t355 47.5q104 0 195 -18t169.5 -58t134 -99.5t87.5 -146.5t32 -196q0 -156 -75.5 -340.5t-202 -360t-299.5 -341t-359.5 -289t-392 -198.5t-387.5 -75q-181 0 -294.5 95 t-111.5 241zM1714 1999q0 28 54.5 57t93.5 29q4 0 5 -1t1 -3t-1 -4.5t-2 -8t-1 -10.5q0 -30 37.5 -74.5t96 -87t140 -72.5t158.5 -30q7 0 -4 -7q-26 -18 -88 -18q-91 0 -184 25.5t-158 62t-106.5 75.5t-41.5 67z" />
<glyph unicode="&#xd3;" horiz-adv-x="2142" d="M274 -92q3 151 77.5 324t193.5 331t274 305.5t315 255.5t321 173t288 65q93 0 156 -41.5t63 -110.5q0 -26 -12 -61q3 44 -47 71t-109 27q-108 0 -256 -67.5t-299.5 -178t-301 -257t-266 -298.5t-190 -309.5t-75.5 -283.5q0 -187 231 -187q103 0 243.5 53.5t291.5 149 t306.5 219.5t294 271.5t247 297t172 306t63.5 288.5q0 387 -420 387q-138 0 -279.5 -33.5t-265 -90t-241.5 -131t-213.5 -157.5t-176.5 -168.5t-135.5 -164.5t-85 -145.5t-30.5 -110.5q0 -15 2 -27t4.5 -20t8.5 -15.5t9.5 -11.5t13 -8.5t13 -5.5t15.5 -5l15 -5 q-23 -13 -61 -13q-58 0 -103 49.5t-44 120.5q2 94 65 206.5t169 222.5t253 213.5t309 182t346 126t355 47.5q104 0 195 -18t169.5 -58t134 -99.5t87.5 -146.5t32 -196q0 -156 -75.5 -340.5t-202 -360t-299.5 -341t-359.5 -289t-392 -198.5t-387.5 -75q-181 0 -294.5 95 t-111.5 241zM1649 1843q77 0 158.5 30t140.5 72.5t97 87t38 74.5q0 5 -1 10t-2.5 8t-2 5t1 3t4.5 1q38 0 92.5 -29t54.5 -57t-41.5 -67t-106.5 -75t-157.5 -61.5t-183.5 -25.5q-36 0 -59.5 6t-30.5 12t-2 6z" />
<glyph unicode="&#xd4;" horiz-adv-x="2142" d="M274 -92q3 151 77.5 324t193.5 331t274 305.5t315 255.5t321 173t288 65q93 0 156 -41.5t63 -110.5q0 -26 -12 -61q3 44 -47 71t-109 27q-108 0 -256 -67.5t-299.5 -178t-301 -257t-266 -298.5t-190 -309.5t-75.5 -283.5q0 -187 231 -187q103 0 243.5 53.5t291.5 149 t306.5 219.5t294 271.5t247 297t172 306t63.5 288.5q0 387 -420 387q-138 0 -279.5 -33.5t-265 -90t-241.5 -131t-213.5 -157.5t-176.5 -168.5t-135.5 -164.5t-85 -145.5t-30.5 -110.5q0 -15 2 -27t4.5 -20t8.5 -15.5t9.5 -11.5t13 -8.5t13 -5.5t15.5 -5l15 -5 q-23 -13 -61 -13q-58 0 -103 49.5t-44 120.5q2 94 65 206.5t169 222.5t253 213.5t309 182t346 126t355 47.5q104 0 195 -18t169.5 -58t134 -99.5t87.5 -146.5t32 -196q0 -156 -75.5 -340.5t-202 -360t-299.5 -341t-359.5 -289t-392 -198.5t-387.5 -75q-181 0 -294.5 95 t-111.5 241zM1522 1817q-3 2 0 2q130 24 272.5 108.5t222.5 177.5q8 11 56.5 -16t42.5 -43q-20 -69 17.5 -158.5t94.5 -111.5q6 -9 -8 -9q-51 -2 -133 57.5t-105 139.5q-98 -72 -225.5 -113t-210.5 -39q-10 -4 -24 5z" />
<glyph unicode="&#xd5;" horiz-adv-x="2142" d="M274 -92q3 151 77.5 324t193.5 331t274 305.5t315 255.5t321 173t288 65q93 0 156 -41.5t63 -110.5q0 -26 -12 -61q3 44 -47 71t-109 27q-108 0 -256 -67.5t-299.5 -178t-301 -257t-266 -298.5t-190 -309.5t-75.5 -283.5q0 -187 231 -187q103 0 243.5 53.5t291.5 149 t306.5 219.5t294 271.5t247 297t172 306t63.5 288.5q0 387 -420 387q-138 0 -279.5 -33.5t-265 -90t-241.5 -131t-213.5 -157.5t-176.5 -168.5t-135.5 -164.5t-85 -145.5t-30.5 -110.5q0 -15 2 -27t4.5 -20t8.5 -15.5t9.5 -11.5t13 -8.5t13 -5.5t15.5 -5l15 -5 q-23 -13 -61 -13q-58 0 -103 49.5t-44 120.5q2 94 65 206.5t169 222.5t253 213.5t309 182t346 126t355 47.5q104 0 195 -18t169.5 -58t134 -99.5t87.5 -146.5t32 -196q0 -156 -75.5 -340.5t-202 -360t-299.5 -341t-359.5 -289t-392 -198.5t-387.5 -75q-181 0 -294.5 95 t-111.5 241zM1567 1788q-16 67 40 130.5t150 63.5q56 0 106 -21.5t100.5 -51.5t86.5 -41q69 -20 150.5 23t123.5 96q-33 -68 -114 -136t-168 -63q-52 3 -147.5 37.5t-116.5 38.5q-40 8 -66 8q-103 0 -145 -84z" />
<glyph unicode="&#xd6;" horiz-adv-x="2142" d="M274 -92q3 151 77.5 324t193.5 331t274 305.5t315 255.5t321 173t288 65q93 0 156 -41.5t63 -110.5q0 -26 -12 -61q3 44 -47 71t-109 27q-108 0 -256 -67.5t-299.5 -178t-301 -257t-266 -298.5t-190 -309.5t-75.5 -283.5q0 -187 231 -187q103 0 243.5 53.5t291.5 149 t306.5 219.5t294 271.5t247 297t172 306t63.5 288.5q0 387 -420 387q-138 0 -279.5 -33.5t-265 -90t-241.5 -131t-213.5 -157.5t-176.5 -168.5t-135.5 -164.5t-85 -145.5t-30.5 -110.5q0 -15 2 -27t4.5 -20t8.5 -15.5t9.5 -11.5t13 -8.5t13 -5.5t15.5 -5l15 -5 q-23 -13 -61 -13q-58 0 -103 49.5t-44 120.5q2 94 65 206.5t169 222.5t253 213.5t309 182t346 126t355 47.5q104 0 195 -18t169.5 -58t134 -99.5t87.5 -146.5t32 -196q0 -156 -75.5 -340.5t-202 -360t-299.5 -341t-359.5 -289t-392 -198.5t-387.5 -75q-181 0 -294.5 95 t-111.5 241zM1690 1886q-3 40 41.5 92t85.5 56q30 2 74.5 -21t54.5 -49q-27 -1 -68 -40.5t-73.5 -79t-39.5 -40.5q-28 0 -50 27t-25 55zM1948 1870q-2 41 42 92t85 55q31 2 75.5 -21.5t53.5 -49.5q-27 0 -67 -38.5t-72.5 -77.5t-39.5 -40q-27 -1 -50.5 25.5t-26.5 54.5z" />
<glyph unicode="&#xd7;" horiz-adv-x="1198" d="M104 72q3 34 91 117.5t180 155.5t196 147q-4 9 -26 63t-35 87t-25.5 73.5t-11.5 58.5q1 39 31 62t69 20q8 -1 29 -55.5t48.5 -138t33.5 -99.5q180 112 415 226t302 110q4 0 4 -2q-60 -45 -309.5 -212.5t-366.5 -260.5q26 -79 53 -159.5t35.5 -107t22 -64.5t23.5 -64 t30 -74q-29 1 -125.5 156.5t-130.5 242.5q-95 -65 -179 -136.5t-124.5 -111t-80 -65t-73.5 -23.5q-35 4 -56 15.5t-20 38.5z" />
<glyph unicode="&#xd8;" horiz-adv-x="2142" d="M272 -696q0 102 166 356q-122 98 -119 248q3 151 77.5 324t193.5 331t274 305.5t315 255.5t321 173t288 65q94 0 156 -41q144 128 256 213q-104 104 -320 104q-138 0 -279.5 -33.5t-265 -90t-241.5 -131t-213.5 -157.5t-176.5 -168.5t-135.5 -164.5t-85 -145.5 t-30.5 -110.5q0 -17 2 -30t8 -22.5t9 -15t14 -11.5t14 -7.5t18 -6t17 -5.5q-23 -13 -62 -13q-58 0 -103 49.5t-44 120.5q2 94 65 206.5t169 222.5t253 213.5t309 182t346 126t355 47.5q267 0 432 -117q183 133 260 139q53 4 87.5 -11t80.5 -60q-64 22 -324 -181 q82 -122 82 -288q0 -156 -75.5 -340.5t-202 -360t-299.5 -341t-359.5 -289t-392 -198.5t-387.5 -75q-94 0 -176 29q-195 -251 -195 -316q0 -23 29.5 -25t77.5 13.5t89 32t85.5 36.5t46.5 21q-54 -45 -150.5 -99.5t-152.5 -62.5q-39 -6 -73 27t-34 76zM451 -147 q0 -75 38 -119q225 321 615.5 748.5t755.5 762.5q-8 2 -21 2q-108 0 -256 -67.5t-299.5 -178t-301 -257t-266 -298.5t-190 -309.5t-75.5 -283.5zM606 -328q34 -6 76 -6q103 0 243.5 53.5t291.5 149t306.5 219.5t294 271.5t247 297t172 306t63.5 288.5q0 77 -23 148 q-358 -301 -861.5 -823t-809.5 -904z" />
<glyph unicode="&#xd9;" horiz-adv-x="2492" d="M82 608q0 105 84 233t220 249t313 236.5t357 201t357.5 138t310.5 52.5q58 0 106.5 -14t87 -43t60 -78.5t21.5 -114.5q0 -80 -56 -205t-145 -263t-197 -287.5t-216 -290.5t-197 -260t-145 -207.5t-56 -122.5q45 -5 206.5 94t355 242t389 303t311.5 272q121 119 405 451 q201 238 340 360q31 29 77 57.5t73 28.5q57 0 109 -44.5t61 -106.5q-19 31 -56 27q-44 0 -142 -86.5t-226 -233.5q-131 -152 -256.5 -321.5t-242 -353.5t-188 -356.5t-71.5 -291.5q0 -96 117 -96q44 0 96.5 14.5t84.5 28t81 37.5q-34 -37 -115.5 -82t-159.5 -45 q-109 0 -172 48t-63 150q0 167 107.5 408.5t218.5 398.5q-109 -104 -240 -222.5t-308 -268t-330.5 -266t-294.5 -197t-214 -80.5q-38 0 -84.5 49t-46.5 88q0 66 62 183t161 253.5t218.5 289.5t239 303.5t218.5 282.5t161 239t62 161q0 119 -184 119q-128 0 -300 -66.5 t-338.5 -170.5t-332 -232t-290 -249.5t-202 -224.5t-77.5 -155q0 -17 11 -32t36 -15q21 0 76 11q-21 -23 -53.5 -41.5t-67.5 -18.5q-48 0 -78.5 25t-39.5 52.5t-9 55.5zM2279 1839q0 28 54.5 57t93.5 29q3 0 4.5 -1t1 -3t-2 -5t-2.5 -8t-1 -10q0 -30 38 -74.5t97 -87 t140.5 -72.5t158.5 -30q5 0 -2 -6t-30.5 -12t-59.5 -6q-91 0 -184 25.5t-158 61.5t-106.5 75t-41.5 67z" />
<glyph unicode="&#xda;" horiz-adv-x="2492" d="M82 608q0 105 84 233t220 249t313 236.5t357 201t357.5 138t310.5 52.5q58 0 106.5 -14t87 -43t60 -78.5t21.5 -114.5q0 -80 -56 -205t-145 -263t-197 -287.5t-216 -290.5t-197 -260t-145 -207.5t-56 -122.5q45 -5 206.5 94t355 242t389 303t311.5 272q121 119 405 451 q201 238 340 360q31 29 77 57.5t73 28.5q57 0 109 -44.5t61 -106.5q-19 31 -56 27q-44 0 -142 -86.5t-226 -233.5q-131 -152 -256.5 -321.5t-242 -353.5t-188 -356.5t-71.5 -291.5q0 -96 117 -96q44 0 96.5 14.5t84.5 28t81 37.5q-34 -37 -115.5 -82t-159.5 -45 q-109 0 -172 48t-63 150q0 167 107.5 408.5t218.5 398.5q-109 -104 -240 -222.5t-308 -268t-330.5 -266t-294.5 -197t-214 -80.5q-38 0 -84.5 49t-46.5 88q0 66 62 183t161 253.5t218.5 289.5t239 303.5t218.5 282.5t161 239t62 161q0 119 -184 119q-128 0 -300 -66.5 t-338.5 -170.5t-332 -232t-290 -249.5t-202 -224.5t-77.5 -155q0 -17 11 -32t36 -15q21 0 76 11q-21 -23 -53.5 -41.5t-67.5 -18.5q-48 0 -78.5 25t-39.5 52.5t-9 55.5zM2187 1587q77 0 159 30t141 72.5t97.5 87.5t38.5 74q0 5 -1.5 10t-3 8l-2.5 5t0.5 3t6.5 1 q37 0 91.5 -29.5t54.5 -56.5q0 -28 -41.5 -67t-106.5 -75t-158 -61.5t-184 -25.5q-36 0 -59.5 6t-30.5 12t-2 6z" />
<glyph unicode="&#xdb;" horiz-adv-x="2492" d="M82 608q0 105 84 233t220 249t313 236.5t357 201t357.5 138t310.5 52.5q58 0 106.5 -14t87 -43t60 -78.5t21.5 -114.5q0 -80 -56 -205t-145 -263t-197 -287.5t-216 -290.5t-197 -260t-145 -207.5t-56 -122.5q45 -5 206.5 94t355 242t389 303t311.5 272q121 119 405 451 q201 238 340 360q31 29 77 57.5t73 28.5q57 0 109 -44.5t61 -106.5q-19 31 -56 27q-44 0 -142 -86.5t-226 -233.5q-131 -152 -256.5 -321.5t-242 -353.5t-188 -356.5t-71.5 -291.5q0 -96 117 -96q44 0 96.5 14.5t84.5 28t81 37.5q-34 -37 -115.5 -82t-159.5 -45 q-109 0 -172 48t-63 150q0 167 107.5 408.5t218.5 398.5q-109 -104 -240 -222.5t-308 -268t-330.5 -266t-294.5 -197t-214 -80.5q-38 0 -84.5 49t-46.5 88q0 66 62 183t161 253.5t218.5 289.5t239 303.5t218.5 282.5t161 239t62 161q0 119 -184 119q-128 0 -300 -66.5 t-338.5 -170.5t-332 -232t-290 -249.5t-202 -224.5t-77.5 -155q0 -17 11 -32t36 -15q21 0 76 11q-21 -23 -53.5 -41.5t-67.5 -18.5q-48 0 -78.5 25t-39.5 52.5t-9 55.5zM2091 1686v2q130 24 273 108.5t223 177.5q8 11 56 -16t42 -43q-20 -69 18 -158.5t95 -111.5q5 -9 -9 -9 q-51 -2 -132.5 57.5t-104.5 139.5q-98 -72 -225.5 -113t-210.5 -39q-11 -4 -25 5z" />
<glyph unicode="&#xdc;" horiz-adv-x="2492" d="M82 608q0 105 84 233t220 249t313 236.5t357 201t357.5 138t310.5 52.5q58 0 106.5 -14t87 -43t60 -78.5t21.5 -114.5q0 -80 -56 -205t-145 -263t-197 -287.5t-216 -290.5t-197 -260t-145 -207.5t-56 -122.5q45 -5 206.5 94t355 242t389 303t311.5 272q121 119 405 451 q201 238 340 360q31 29 77 57.5t73 28.5q57 0 109 -44.5t61 -106.5q-19 31 -56 27q-44 0 -142 -86.5t-226 -233.5q-131 -152 -256.5 -321.5t-242 -353.5t-188 -356.5t-71.5 -291.5q0 -96 117 -96q44 0 96.5 14.5t84.5 28t81 37.5q-34 -37 -115.5 -82t-159.5 -45 q-109 0 -172 48t-63 150q0 167 107.5 408.5t218.5 398.5q-109 -104 -240 -222.5t-308 -268t-330.5 -266t-294.5 -197t-214 -80.5q-38 0 -84.5 49t-46.5 88q0 66 62 183t161 253.5t218.5 289.5t239 303.5t218.5 282.5t161 239t62 161q0 119 -184 119q-128 0 -300 -66.5 t-338.5 -170.5t-332 -232t-290 -249.5t-202 -224.5t-77.5 -155q0 -17 11 -32t36 -15q21 0 76 11q-21 -23 -53.5 -41.5t-67.5 -18.5q-48 0 -78.5 25t-39.5 52.5t-9 55.5zM2288 1683q-3 40 42 92t87 56q28 2 73 -21t56 -49q-21 -1 -52 -25.5t-56 -54t-47 -54t-28 -25.5 q-28 0 -50 26.5t-25 54.5zM2548 1667q-2 41 42 92.5t85 55.5q31 2 74.5 -21.5t52.5 -50.5q-27 0 -66.5 -38.5t-71.5 -77.5t-38 -40q-29 -1 -52 25.5t-26 54.5z" />
<glyph unicode="&#xdd;" horiz-adv-x="2189" d="M166 582q-6 83 53 195.5t161 229t243.5 232t293.5 207.5t318.5 153.5t310.5 71.5q108 8 189.5 -44.5t87.5 -160.5q5 -72 -40.5 -179t-116.5 -214.5t-154.5 -224.5t-155.5 -213.5t-118.5 -179t-43.5 -121.5q3 -31 72 -23q89 9 256.5 127.5t355.5 297.5t350 372 q69 82 148.5 182t129.5 164t99.5 123.5t84 88t58.5 28.5q59 0 109.5 -41.5t52.5 -75.5q-6 5 -11 8.5t-10.5 4.5t-8.5 1.5t-8.5 0t-6.5 -0.5q-36 -2 -111.5 -93.5t-175 -244t-201 -315t-220 -346.5t-201.5 -299q-55 -78 -70 -103q183 -31 258 -92q0 -2 -2 -2q-148 51 -272 70 q-88 -124 -212.5 -261.5t-279.5 -275t-312.5 -247.5t-322.5 -179t-299 -69q-234 0 -247 178q-7 90 40 191t132.5 196t208.5 183.5t263 157t302 114t319 55.5q86 4 133 4q53 0 76 -2q308 411 508 752q-97 -105 -223 -223.5t-264 -233t-266 -191.5t-203 -82 q-71 -4 -119.5 43.5t-50.5 88.5q-5 76 61.5 203t164.5 261.5t196 265t165.5 241.5t63.5 163q-4 47 -24.5 76.5t-46 37.5t-53.5 11.5t-48 -0.5q-123 -7 -270 -79t-279 -177t-258 -229.5t-216.5 -237.5t-145 -198.5t-52.5 -114.5q1 -20 16.5 -29t34.5 -4q38 0 66 14 q-18 -29 -54.5 -53.5t-72.5 -28.5q-47 -3 -89.5 25t-45.5 70zM276 -645q3 -48 41 -72.5t91 -21.5q139 9 316.5 99t346 224.5t320.5 289.5t262 304q-14 2 -43 2t-52 -1l-22 -1q-119 0 -263.5 -36t-284.5 -95.5t-273 -142.5t-231.5 -172.5t-156 -188.5t-51.5 -188zM1958 1634 q77 0 158.5 30t140.5 72.5t97 87t38 74.5q0 5 -1 10.5t-2 8t-1.5 4.5t1 3t5.5 1q37 0 92.5 -29.5t55.5 -56.5q0 -28 -41.5 -67t-107.5 -75t-159 -61.5t-184 -25.5q-37 0 -60.5 6t-30 12t-1.5 6z" />
<glyph unicode="&#xde;" horiz-adv-x="2142" d="M12 571q9 75 69 165.5t161.5 185.5t252.5 185.5t328.5 163.5t405 122t467.5 59q234 231 315 231q57 0 108 -47t58 -110q-18 30 -57 30q-45 0 -170 -112q78 -9 152.5 -27t153 -51.5t136.5 -77.5t95.5 -110.5t37.5 -145.5q0 -119 -75 -240t-200.5 -224t-287.5 -198.5 t-336.5 -170.5t-347.5 -134.5t-321.5 -95t-256.5 -47.5q-137 -220 -137 -287q0 -21 0.5 -27.5t3 -20t9.5 -19.5t20 -8q-50 -17 -85.5 18.5t-35.5 104.5q0 83 74 237q-93 8 -146 38t-53 77q0 33 35 75t85 78.5t101.5 66t90 44.5t43.5 8q-279 -169 -279 -260q0 -22 53 -22 q51 0 129 10q162 295 460 685t562 664q-189 -22 -404 -95.5t-401 -173.5t-340 -209.5t-243.5 -214.5t-89.5 -177q0 -59 48.5 -108t92.5 -52q0 -2 -33 -2q-47 0 -92 13t-83 38.5t-58.5 69t-14.5 98.5zM801 76q186 48 403 130.5t429 190t387 222t286 237t117 223.5 q7 131 -142 213.5t-391 98.5q-221 -211 -542 -599.5t-547 -715.5z" />
<glyph unicode="&#xdf;" horiz-adv-x="1200" d="M-238 -449q21 224 199 582q149 298 333 565.5t359 458.5q116 125 221 209.5t191 125.5t154.5 54.5t134.5 7.5q91 -9 142 -55.5t52 -124.5q2 -81 -48 -167.5t-129.5 -157t-173 -130.5t-181.5 -97t-152 -48q86 -4 156.5 -34.5t116.5 -92.5t47 -145t-39 -170t-107.5 -161.5 t-157.5 -140.5t-186 -112t-194 -71t-181 -21q-32 1 -66.5 14t-63 44.5t-29.5 74.5q-2 70 48.5 151.5t128.5 150t165.5 127t164 94t119.5 40.5q-52 -26 -121 -69.5t-147.5 -102.5t-141 -118t-97 -119t-19.5 -103q5 -17 23 -31t45 -14q67 0 164 38t196.5 103.5t187 142.5 t142.5 165t55 161q0 154 -215 154q-39 0 -94 -6t-62 -6q-5 0 -15 7.5t-17 15t-4 8.5q62 14 191.5 96t260.5 187.5t229.5 222.5t98.5 190q0 63 -82 63q-62 -1 -139 -40t-149 -97.5t-152.5 -141t-145 -158.5t-131.5 -163q-263 -343 -452 -674q-116 -201 -196 -395.5 t-99 -345.5q-10 -38 -1.5 -65.5t42.5 -30.5q-35 -17 -68.5 -10.5t-60 26t-40.5 57t-10 82.5z" />
<glyph unicode="&#xe0;" d="M-68 129q0 66 51 156t139 180t194.5 168t230 127t231.5 49q43 0 81.5 -11.5t68.5 -42t30 -75.5t-38 -96q-5 -1 -7 2q23 41 23 73q0 45 -27 68.5t-73 20.5q-86 -4 -191.5 -60t-210.5 -145q-89 -76 -173 -181t-125 -176.5t-30 -76.5q3 -3 13 0q48 16 211 130.5t250 188.5 q7 6 42 38.5t64 59t63 54.5t52 38q28 14 68.5 -40t33.5 -76q-5 10 -55.5 -46t-111.5 -141.5t-89 -146.5q-20 -48 -20 -70q121 35 523 413q18 17 26 24q5 5 9.5 2.5t5.5 -7.5t-1 -8q-78 -86 -159 -168t-176.5 -171t-176 -143t-123.5 -54q-14 0 -35 12q-24 13 -45.5 41.5 t-21.5 54.5q0 14 16 76q18 54 52.5 116.5t66.5 104.5q-72 -74 -281.5 -239.5t-265.5 -165.5q-6 0 -18 6q-28 14 -59.5 60.5t-31.5 76.5zM520 1122q0 27 54.5 55.5t93.5 28.5q4 0 5.5 -0.5t1 -2.5t-1.5 -4t-2 -7t-1 -10q0 -29 38 -74t96.5 -87.5t140 -72.5t157.5 -30 q6 0 -3 -7q-23 -18 -89 -18q-91 0 -183.5 25t-158 61t-107 75t-41.5 68z" />
<glyph unicode="&#xe1;" d="M-68 129q0 66 51 156t139 180t194.5 168t230 127t231.5 49q43 0 81.5 -11.5t68.5 -42t30 -75.5t-38 -96q-5 -1 -7 2q23 41 23 73q0 45 -27 68.5t-73 20.5q-86 -4 -191.5 -60t-210.5 -145q-89 -76 -173 -181t-125 -176.5t-30 -76.5q3 -3 13 0q48 16 211 130.5t250 188.5 q7 6 42 38.5t64 59t63 54.5t52 38q28 14 68.5 -40t33.5 -76q-5 10 -55.5 -46t-111.5 -141.5t-89 -146.5q-20 -48 -20 -70q121 35 523 413q18 17 26 24q5 5 9.5 2.5t5.5 -7.5t-1 -8q-78 -86 -159 -168t-176.5 -171t-176 -143t-123.5 -54q-14 0 -35 12q-24 13 -45.5 41.5 t-21.5 54.5q0 14 16 76q18 54 52.5 116.5t66.5 104.5q-72 -74 -281.5 -239.5t-265.5 -165.5q-6 0 -18 6q-28 14 -59.5 60.5t-31.5 76.5zM422 958v3q84 -6 175 17.5t157.5 60.5t111.5 77.5t47 69.5q1 7 -1 13.5t-1 8t7 2.5q40 -3 95.5 -35.5t55.5 -58.5q-4 -37 -80.5 -83 t-208 -77.5t-262.5 -23.5q-77 5 -96 26z" />
<glyph unicode="&#xe2;" d="M-68 129q0 66 51 156t139 180t194.5 168t230 127t231.5 49q43 0 81.5 -11.5t68.5 -42t30 -75.5t-38 -96q-5 -1 -7 2q23 41 23 73q0 45 -27 68.5t-73 20.5q-86 -4 -191.5 -60t-210.5 -145q-89 -76 -173 -181t-125 -176.5t-30 -76.5q3 -3 13 0q48 16 211 130.5t250 188.5 q7 6 42 38.5t64 59t63 54.5t52 38q28 14 68.5 -40t33.5 -76q-5 10 -55.5 -46t-111.5 -141.5t-89 -146.5q-20 -48 -20 -70q121 35 523 413q18 17 26 24q5 5 9.5 2.5t5.5 -7.5t-1 -8q-78 -86 -159 -168t-176.5 -171t-176 -143t-123.5 -54q-14 0 -35 12q-24 13 -45.5 41.5 t-21.5 54.5q0 14 16 76q18 54 52.5 116.5t66.5 104.5q-72 -74 -281.5 -239.5t-265.5 -165.5q-6 0 -18 6q-28 14 -59.5 60.5t-31.5 76.5zM377 907q130 24 272.5 109t222.5 178q8 11 56.5 -16t42.5 -43q-20 -69 17.5 -159t94.5 -112q6 -8 -8 -8q-51 -2 -132.5 57.5 t-104.5 139.5q-98 -72 -226 -113t-211 -39q-12 -3 -24 6z" />
<glyph unicode="&#xe3;" d="M-68 129q0 66 51 156t139 180t194.5 168t230 127t231.5 49q43 0 81.5 -11.5t68.5 -42t30 -75.5t-38 -96q-5 -1 -7 2q23 41 23 73q0 45 -27 68.5t-73 20.5q-86 -4 -191.5 -60t-210.5 -145q-89 -76 -173 -181t-125 -176.5t-30 -76.5q3 -3 13 0q48 16 211 130.5t250 188.5 q7 6 42 38.5t64 59t63 54.5t52 38q28 14 68.5 -40t33.5 -76q-5 10 -55.5 -46t-111.5 -141.5t-89 -146.5q-20 -48 -20 -70q121 35 523 413q18 17 26 24q5 5 9.5 2.5t5.5 -7.5t-1 -8q-78 -86 -159 -168t-176.5 -171t-176 -143t-123.5 -54q-14 0 -35 12q-24 13 -45.5 41.5 t-21.5 54.5q0 14 16 76q18 54 52.5 116.5t66.5 104.5q-72 -74 -281.5 -239.5t-265.5 -165.5q-6 0 -18 6q-28 14 -59.5 60.5t-31.5 76.5zM471 909q-18 66 38.5 130.5t149.5 64.5q39 0 85 -20t87.5 -44.5t61.5 -29.5q30 -9 61 -9q66 0 121 34.5t90 78.5q-14 -29 -40.5 -62.5 t-63 -67.5t-84.5 -53t-94 -13q-52 7 -114 28.5t-87 26.5q-42 10 -84 10q-91 0 -127 -74z" />
<glyph unicode="&#xe4;" d="M-68 129q0 66 51 156t139 180t194.5 168t230 127t231.5 49q43 0 81.5 -11.5t68.5 -42t30 -75.5t-38 -96q-5 -1 -7 2q23 41 23 73q0 45 -27 68.5t-73 20.5q-86 -4 -191.5 -60t-210.5 -145q-89 -76 -173 -181t-125 -176.5t-30 -76.5q3 -3 13 0q48 16 211 130.5t250 188.5 q7 6 42 38.5t64 59t63 54.5t52 38q28 14 68.5 -40t33.5 -76q-5 10 -55.5 -46t-111.5 -141.5t-89 -146.5q-20 -48 -20 -70q121 35 523 413q18 17 26 24q5 5 9.5 2.5t5.5 -7.5t-1 -8q-78 -86 -159 -168t-176.5 -171t-176 -143t-123.5 -54q-14 0 -35 12q-24 13 -45.5 41.5 t-21.5 54.5q0 14 16 76q18 54 52.5 116.5t66.5 104.5q-72 -74 -281.5 -239.5t-265.5 -165.5q-6 0 -18 6q-28 14 -59.5 60.5t-31.5 76.5zM578 1022q-2 40 42.5 91.5t86.5 55.5q29 2 74 -21t53 -50q-27 -1 -67 -40t-72.5 -78t-39.5 -40q-27 0 -50.5 27.5t-26.5 54.5zM838 1006 q-3 40 41 91.5t86 55.5q29 2 73 -22.5t54 -49.5q-21 -1 -51 -25t-54 -52.5t-46 -52.5t-28 -25q-27 -1 -50 26t-25 54z" />
<glyph unicode="&#xe5;" d="M-68 129q0 66 51 156t139 180t194.5 168t230 127t231.5 49q43 0 81.5 -11.5t68.5 -42t30 -75.5t-38 -96q-5 -1 -7 2q23 41 23 73q0 45 -27 68.5t-73 20.5q-86 -4 -191.5 -60t-210.5 -145q-89 -76 -173 -181t-125 -176.5t-30 -76.5q3 -3 13 0q48 16 211 130.5t250 188.5 q7 6 42 38.5t64 59t63 54.5t52 38q28 14 68.5 -40t33.5 -76q-5 10 -55.5 -46t-111.5 -141.5t-89 -146.5q-20 -48 -20 -70q121 35 523 413q18 17 26 24q5 5 9.5 2.5t5.5 -7.5t-1 -8q-78 -86 -159 -168t-176.5 -171t-176 -143t-123.5 -54q-14 0 -35 12q-24 13 -45.5 41.5 t-21.5 54.5q0 14 16 76q18 54 52.5 116.5t66.5 104.5q-72 -74 -281.5 -239.5t-265.5 -165.5q-6 0 -18 6q-28 14 -59.5 60.5t-31.5 76.5zM649 1012q0 64 51 136t126 119.5t141 47.5q44 0 71 -22t27 -70q0 -23 -10.5 -49t-20.5 -41l-10 -15q-1 0 3.5 13t10.5 37t6 44 q0 27 -12.5 41.5t-32.5 14.5q-55 0 -140 -94.5t-85 -153.5q0 -21 23 -21q31 0 65.5 12t61.5 29.5t49.5 34.5t36 29t14.5 12q4 0 4 -8q0 -15 -24 -49t-60 -71t-85 -65t-91 -28q-56 0 -87.5 29.5t-31.5 87.5z" />
<glyph unicode="&#xe6;" horiz-adv-x="1241" d="M-61 133q0 55 36.5 127.5t97.5 147t145.5 147t175.5 129t193 91t193 34.5q56 0 105.5 -22t68.5 -68q78 43 150.5 66.5t118.5 23.5q31 0 78 -33t47 -71q0 -62 -106 -163.5t-256.5 -182t-260.5 -83.5q-17 -23 -53 -86q-32 -55 -35 -90q-2 -21 8 -32t41 -11q28 0 63.5 10 t78.5 31.5t83 43.5t93 58.5t91.5 63t95 70t87.5 67.5t85.5 66.5t72.5 56.5q6 3 9 -0.5t-1 -7.5q-16 -15 -68 -63.5t-88 -82t-98.5 -87.5t-112 -92t-115 -81.5t-120.5 -71t-115.5 -45.5t-112.5 -18q-66 0 -106.5 36.5t-40.5 90.5q0 63 31 140q23 58 73 131 q-108 -101 -289.5 -242t-234.5 -141q-6 0 -18 6q-28 14 -59 60.5t-31 76.5zM113 113q3 -3 12 0q48 16 209.5 129.5t245.5 185.5q11 9 53.5 48t85.5 77t69 55q55 46 140 99q-21 44 -90 41q-86 -4 -191.5 -60t-210.5 -145q-89 -76 -172 -180t-122.5 -174t-28.5 -76zM754 317 q63 7 155.5 64.5t172 129t138 140t62.5 97.5q-80 -26 -167.5 -82.5t-157.5 -121t-123 -124t-80 -103.5z" />
<glyph unicode="&#xe7;" horiz-adv-x="700" d="M-299 -610q41 15 116.5 54t162 91.5t159 115.5t92.5 113q30 74 -145 8q-28 -10 -29 -10q-6 0 -13.5 8.5t-6.5 14.5q2 10 66 90.5t106 124.5q-58 -14 -96 -14q-50 0 -96.5 39t-53.5 88q-4 29 4 61q13 71 72.5 170.5t155.5 192.5q125 124 267.5 198t252.5 74q34 0 75 -37.5 t41 -62.5q0 -28 -15 -56.5t-44.5 -57.5t-51.5 -47t-56 -44q-2 -2 -5.5 -1.5t-5.5 2.5t0 5q26 26 69 112.5t32 96.5q-78 -1 -189 -77t-204.5 -176t-160.5 -202t-67 -155q0 -22 20 -29.5t40 -5.5q66 7 160 53.5t206.5 126t187.5 137.5t177 141q7 5 14 -3q3 -4 0 -7 q-62 -58 -105 -98t-126 -111t-149.5 -120.5t-149 -100t-150.5 -76.5q-4 -10 -84 -131q51 19 94 19q56 0 86 -27.5t13 -85.5q-27 -90 -144 -178.5t-257.5 -146t-264.5 -76.5z" />
<glyph unicode="&#xe8;" horiz-adv-x="708" d="M-45 115q0 59 27 135q80 183 282 354q118 98 242 151.5t199 53.5q31 0 77.5 -32.5t46.5 -71.5q0 -62 -106 -163.5t-256 -182t-260 -83.5q-74 -91 -82 -161q-2 -19 13 -29t48 -10q53 0 146 45.5t201 119.5t202 145.5t183 145.5q3 2 8 0t8 -5.5t0 -6.5q-184 -169 -266 -236 q-362 -298 -568 -298q-49 0 -97 43.5t-48 85.5zM236 317q62 7 154.5 64.5t172 129t138.5 140t63 97.5q-80 -26 -167.5 -82.5t-157.5 -121t-123 -124t-80 -103.5zM424 1147q0 27 54 56.5t91 29.5q5 0 6.5 -1t0.5 -3l-2.5 -5t-3 -8t-1.5 -10q0 -29 39 -74t98.5 -87.5 t141.5 -72.5t158 -30q5 0 -2 -6t-31 -12t-60 -6q-91 0 -183.5 25.5t-157.5 61.5t-106.5 75t-41.5 67z" />
<glyph unicode="&#xe9;" horiz-adv-x="708" d="M-45 115q0 59 27 135q80 183 282 354q118 98 242 151.5t199 53.5q31 0 77.5 -32.5t46.5 -71.5q0 -62 -106 -163.5t-256 -182t-260 -83.5q-74 -91 -82 -161q-2 -19 13 -29t48 -10q53 0 146 45.5t201 119.5t202 145.5t183 145.5q3 2 8 0t8 -5.5t0 -6.5q-184 -169 -266 -236 q-362 -298 -568 -298q-49 0 -97 43.5t-48 85.5zM236 317q62 7 154.5 64.5t172 129t138.5 140t63 97.5q-80 -26 -167.5 -82.5t-157.5 -121t-123 -124t-80 -103.5zM340 958v3q84 -6 175 17.5t157.5 60.5t111.5 77.5t47 69.5q1 7 -1 13.5t-1 8t7 2.5q40 -3 95.5 -35.5 t55.5 -58.5q-4 -37 -80.5 -83t-208 -77.5t-262.5 -23.5q-77 5 -96 26z" />
<glyph unicode="&#xea;" horiz-adv-x="708" d="M-45 115q0 59 27 135q80 183 282 354q118 98 242 151.5t199 53.5q31 0 77.5 -32.5t46.5 -71.5q0 -62 -106 -163.5t-256 -182t-260 -83.5q-74 -91 -82 -161q-2 -19 13 -29t48 -10q53 0 146 45.5t201 119.5t202 145.5t183 145.5q3 2 8 0t8 -5.5t0 -6.5q-184 -169 -266 -236 q-362 -298 -568 -298q-49 0 -97 43.5t-48 85.5zM236 317q62 7 154.5 64.5t172 129t138.5 140t63 97.5q-80 -26 -167.5 -82.5t-157.5 -121t-123 -124t-80 -103.5zM328 915q118 21 246.5 98t201.5 161q11 11 54.5 -14t39.5 -40q-21 -61 13.5 -142.5t85.5 -100.5q6 -9 -8 -9 q-28 -1 -73 17t-91 58t-58 89q-88 -64 -197 -94.5t-190 -28.5q-13 -3 -24 6z" />
<glyph unicode="&#xeb;" horiz-adv-x="708" d="M-45 115q0 59 27 135q80 183 282 354q118 98 242 151.5t199 53.5q31 0 77.5 -32.5t46.5 -71.5q0 -62 -106 -163.5t-256 -182t-260 -83.5q-74 -91 -82 -161q-2 -19 13 -29t48 -10q53 0 146 45.5t201 119.5t202 145.5t183 145.5q3 2 8 0t8 -5.5t0 -6.5q-184 -169 -266 -236 q-362 -298 -568 -298q-49 0 -97 43.5t-48 85.5zM236 317q62 7 154.5 64.5t172 129t138.5 140t63 97.5q-80 -26 -167.5 -82.5t-157.5 -121t-123 -124t-80 -103.5zM498 1024q-2 40 42.5 91.5t86.5 55.5q30 2 74.5 -20.5t54.5 -50.5q-21 -1 -51.5 -25.5t-54.5 -53.5t-46 -53.5 t-29 -25.5q-27 0 -50.5 27.5t-26.5 54.5zM760 1038q-3 40 40.5 92t84.5 56q29 2 74.5 -22.5t54.5 -49.5q-27 -1 -67 -39.5t-72.5 -77t-38.5 -39.5q-27 -1 -51.5 26.5t-24.5 53.5z" />
<glyph unicode="&#xec;" horiz-adv-x="460" d="M-55 86q0 57 79.5 199.5t182 281t166.5 189.5q12 12 30 12q36 0 82.5 -47.5t46.5 -85.5q0 -2 -1 -2.5t-3.5 0t-5.5 2t-7.5 2.5t-8.5 2q-38 4 -129.5 -115.5t-168.5 -250.5t-91 -177q131 35 549 439q6 5 12 2.5t7 -7.5t-1 -8q-79 -86 -158 -166t-174 -168.5t-174.5 -143 t-124.5 -58.5q-14 0 -24 2q-26 8 -55 40t-29 58zM303 1126q0 27 54.5 56.5t91.5 29.5q4 0 5.5 -0.5t0.5 -3l-2 -5t-2.5 -7.5t-1.5 -10q0 -29 38.5 -74t97.5 -87.5t140.5 -72.5t157.5 -30q7 0 -3 -7q-25 -18 -87 -18q-92 0 -185 25.5t-158 61.5t-106 75t-41 67z" />
<glyph unicode="&#xed;" horiz-adv-x="460" d="M-55 86q0 57 79.5 199.5t182 281t166.5 189.5q12 12 30 12q36 0 82.5 -47.5t46.5 -85.5q0 -2 -1 -2.5t-3.5 0t-5.5 2t-7.5 2.5t-8.5 2q-38 4 -129.5 -115.5t-168.5 -250.5t-91 -177q131 35 549 439q6 5 12 2.5t7 -7.5t-1 -8q-79 -86 -158 -166t-174 -168.5t-174.5 -143 t-124.5 -58.5q-14 0 -24 2q-26 8 -55 40t-29 58zM256 934q-4 4 0 4q77 0 158.5 30t140 72.5t96 87t37.5 74.5q0 5 -1 10.5t-2 8t-1 4.5t1 3t5 1q39 0 93.5 -29t54.5 -57t-41.5 -67t-106.5 -75.5t-158 -62t-184 -25.5q-73 0 -92 21z" />
<glyph unicode="&#xee;" horiz-adv-x="460" d="M-55 86q0 57 79.5 199.5t182 281t166.5 189.5q12 12 30 12q36 0 82.5 -47.5t46.5 -85.5q0 -2 -1 -2.5t-3.5 0t-5.5 2t-7.5 2.5t-8.5 2q-38 4 -129.5 -115.5t-168.5 -250.5t-91 -177q131 35 549 439q6 5 12 2.5t7 -7.5t-1 -8q-79 -86 -158 -166t-174 -168.5t-174.5 -143 t-124.5 -58.5q-14 0 -24 2q-26 8 -55 40t-29 58zM125 915q118 21 246.5 98t201.5 161q11 11 55 -14t40 -40q-21 -62 13 -143t85 -100q6 -9 -8 -9q-27 -1 -72.5 17t-91 58t-57.5 89q-88 -64 -197 -94.5t-190 -28.5q-13 -2 -25 6z" />
<glyph unicode="&#xef;" horiz-adv-x="460" d="M-55 86q0 57 79.5 199.5t182 281t166.5 189.5q12 12 30 12q36 0 82.5 -47.5t46.5 -85.5q0 -2 -1 -2.5t-3.5 0t-5.5 2t-7.5 2.5t-8.5 2q-38 4 -129.5 -115.5t-168.5 -250.5t-91 -177q131 35 549 439q6 5 12 2.5t7 -7.5t-1 -8q-79 -86 -158 -166t-174 -168.5t-174.5 -143 t-124.5 -58.5q-14 0 -24 2q-26 8 -55 40t-29 58zM354 979q-2 40 42 91.5t85 55.5q32 2 76.5 -20.5t52.5 -50.5q-21 -1 -50.5 -25.5t-54 -53.5t-46 -53.5t-27.5 -25.5q-27 0 -51 27.5t-27 54.5zM614 993q-3 40 41 92t86 56q29 2 73 -22t56 -50q-27 -1 -67.5 -39.5t-73 -77 t-39.5 -39.5q-26 -1 -50 26t-26 54z" />
<glyph unicode="&#xf0;" horiz-adv-x="774" d="M-10 152q0 93 50 189.5t133 175.5t184 142.5t210.5 98.5t204.5 35q-5 113 -29 200q-154 -50 -262.5 -119.5t-103.5 -111.5q1 -5 -22 5t-47 31.5t-27 43.5q-4 28 52 72.5t160 90.5t220 70q-50 114 -125.5 184t-163.5 82q10 10 43.5 13.5t77.5 -4.5q71 -16 146.5 -82.5 t133.5 -177.5q62 6 115 6q71 0 129.5 -9.5t84 -19t32.5 -16.5q-29 4 -88 4q-112 0 -244 -29l12 -31q39 -101 39 -219q0 -186 -90 -344q-105 -181 -294 -309.5t-365 -128.5q-68 0 -117 49.5t-49 108.5zM136 70q1 -27 14 -39q42 1 117 47.5t158.5 125t160 170t128 193.5 t56.5 183q-54 -13 -112.5 -43.5t-111 -71.5t-106 -92t-97 -104t-83 -107.5t-65 -103t-43 -90t-16.5 -68.5z" />
<glyph unicode="&#xf1;" d="M-43 70q-5 12 8 55t47 108q74 144 195 312q58 82 118.5 153t98.5 101q10 10 29 10q37 0 82 -46.5t45 -84.5q-2 -3 -3 -3t-8.5 3t-13.5 4q-18 1 -62.5 -45.5t-101.5 -118.5q-179 -237 -233 -336q33 47 104 115q174 171 391 336.5t269 165.5q36 0 72.5 -57.5t17.5 -75.5 q-28 -22 -117.5 -140.5t-172.5 -252t-85 -177.5q122 33 529 417q17 15 24 22q6 5 11 2.5t6 -7.5t-1 -8q-77 -84 -159 -167t-177 -170t-175.5 -141t-123.5 -54q-23 0 -63 43q-37 50 -37 80q0 82 127.5 278t216.5 277q-120 -54 -309.5 -205.5t-310.5 -282.5q-40 -44 -74 -86 q-41 -49 -51.5 -87t12.5 -48q-43 -10 -78 26t-47 85zM463 907q-18 66 38.5 130.5t149.5 64.5q39 0 85 -20t87.5 -44.5t61.5 -29.5q30 -9 61 -9q66 0 121 34.5t90 78.5q-14 -29 -40.5 -62.5t-63.5 -67.5t-85 -53.5t-94 -13.5q-52 7 -113.5 29t-86.5 27q-42 10 -84 10 q-91 0 -127 -74z" />
<glyph unicode="&#xf2;" horiz-adv-x="813" d="M-20 141q0 97 48.5 197t130 183t181 148.5t208 102.5t204.5 37q84 0 125 -35q6 -6 -5 -6q-7 1 -25 3.5t-26 2.5q-170 0 -360.5 -175t-286.5 -357t-37 -207q41 -17 113.5 26.5t151 122.5t152.5 168.5t128 171.5q-9 17 -18.5 52.5t-4.5 48.5q5 17 40.5 50t54.5 34 q13 1 28 -7t19 -14q33 -53 73 -80.5t97 -23.5q60 5 113.5 28t84 43t37.5 19q-8 -25 -65 -65.5t-127 -63.5q-61 -19 -121 -19q-39 0 -62 9q-20 -98 -101.5 -202.5t-185.5 -182t-216.5 -126t-192.5 -44.5q-68 4 -111.5 52t-43.5 109zM561 1126q0 28 54 57t92 29q4 0 5.5 -0.5 t0.5 -3l-2 -5t-2.5 -7.5t-1.5 -10q0 -29 38.5 -74t97.5 -87.5t140.5 -72.5t157.5 -30q5 0 -1.5 -6t-29.5 -12.5t-59 -6.5q-92 0 -185 25.5t-158 61.5t-106 75t-41 67z" />
<glyph unicode="&#xf3;" horiz-adv-x="813" d="M-20 141q0 97 48.5 197t130 183t181 148.5t208 102.5t204.5 37q84 0 125 -35q6 -6 -5 -6q-7 1 -25 3.5t-26 2.5q-170 0 -360.5 -175t-286.5 -357t-37 -207q41 -17 113.5 26.5t151 122.5t152.5 168.5t128 171.5q-9 17 -18.5 52.5t-4.5 48.5q5 17 40.5 50t54.5 34 q13 1 28 -7t19 -14q33 -53 73 -80.5t97 -23.5q60 5 113.5 28t84 43t37.5 19q-8 -25 -65 -65.5t-127 -63.5q-61 -19 -121 -19q-39 0 -62 9q-20 -98 -101.5 -202.5t-185.5 -182t-216.5 -126t-192.5 -44.5q-68 4 -111.5 52t-43.5 109zM460 931q-1 4 1 5q76 0 157.5 30t140 72.5 t96.5 87.5t38 74q0 5 -1 10.5t-2 8t-1.5 4.5t1 3t5.5 1q37 0 91 -29.5t54 -56.5q0 -28 -41.5 -67t-106.5 -75.5t-157.5 -62t-183.5 -25.5q-73 0 -91 20z" />
<glyph unicode="&#xf4;" horiz-adv-x="813" d="M-20 141q0 97 48.5 197t130 183t181 148.5t208 102.5t204.5 37q84 0 125 -35q6 -6 -5 -6q-7 1 -25 3.5t-26 2.5q-170 0 -360.5 -175t-286.5 -357t-37 -207q41 -17 113.5 26.5t151 122.5t152.5 168.5t128 171.5q-9 17 -18.5 52.5t-4.5 48.5q5 17 40.5 50t54.5 34 q13 1 28 -7t19 -14q33 -53 73 -80.5t97 -23.5q60 5 113.5 28t84 43t37.5 19q-8 -25 -65 -65.5t-127 -63.5q-61 -19 -121 -19q-39 0 -62 9q-20 -98 -101.5 -202.5t-185.5 -182t-216.5 -126t-192.5 -44.5q-68 4 -111.5 52t-43.5 109zM322 907q130 24 272.5 109t222.5 178 q8 11 56 -16t42 -43q-20 -69 18 -159t95 -112q6 -8 -8 -8q-51 -2 -133 57.5t-105 139.5q-98 -72 -225.5 -113t-210.5 -39q-12 -3 -24 6z" />
<glyph unicode="&#xf5;" horiz-adv-x="813" d="M-20 141q0 97 48.5 197t130 183t181 148.5t208 102.5t204.5 37q84 0 125 -35q6 -6 -5 -6q-7 1 -25 3.5t-26 2.5q-170 0 -360.5 -175t-286.5 -357t-37 -207q41 -17 113.5 26.5t151 122.5t152.5 168.5t128 171.5q-9 17 -18.5 52.5t-4.5 48.5q5 17 40.5 50t54.5 34 q13 1 28 -7t19 -14q33 -53 73 -80.5t97 -23.5q60 5 113.5 28t84 43t37.5 19q-8 -25 -65 -65.5t-127 -63.5q-61 -19 -121 -19q-39 0 -62 9q-20 -98 -101.5 -202.5t-185.5 -182t-216.5 -126t-192.5 -44.5q-68 4 -111.5 52t-43.5 109zM467 909q-18 66 38.5 130.5t149.5 64.5 q39 0 85 -20t87.5 -44.5t61.5 -29.5q30 -9 61 -9q66 0 121 34.5t90 78.5q-14 -29 -40.5 -62.5t-63 -67.5t-84.5 -53t-94 -13q-52 7 -114 28.5t-87 26.5q-42 10 -84 10q-91 0 -127 -74z" />
<glyph unicode="&#xf6;" horiz-adv-x="813" d="M-20 141q0 97 48.5 197t130 183t181 148.5t208 102.5t204.5 37q84 0 125 -35q6 -6 -5 -6q-7 1 -25 3.5t-26 2.5q-170 0 -360.5 -175t-286.5 -357t-37 -207q41 -17 113.5 26.5t151 122.5t152.5 168.5t128 171.5q-9 17 -18.5 52.5t-4.5 48.5q5 17 40.5 50t54.5 34 q13 1 28 -7t19 -14q33 -53 73 -80.5t97 -23.5q60 5 113.5 28t84 43t37.5 19q-8 -25 -65 -65.5t-127 -63.5q-61 -19 -121 -19q-39 0 -62 9q-20 -98 -101.5 -202.5t-185.5 -182t-216.5 -126t-192.5 -44.5q-68 4 -111.5 52t-43.5 109zM522 993q-2 40 42.5 92t86.5 56 q30 2 74.5 -21t54.5 -51q-28 -1 -68 -40t-72 -78t-38 -40q-29 0 -53 27.5t-27 54.5zM782 1008q-2 40 42 91.5t85 55.5q29 2 74 -22.5t55 -49.5q-21 -1 -50.5 -25t-54 -52.5t-46 -52.5t-27.5 -25q-28 -1 -52 26t-26 54z" />
<glyph unicode="&#xf7;" horiz-adv-x="1290" d="M252 399q0 33 187.5 64t322.5 31q128 0 257.5 -10.5t209.5 -26t80 -29.5q0 -6 -6 -6q-110 0 -334 -33t-411 -66.5t-204 -33.5q-42 0 -72 37.5t-30 72.5zM391 76q-2 44 47 101.5t94 60.5q33 2 82 -24t58 -54q-29 -1 -72.5 -43.5t-79.5 -85t-45 -43.5q-30 -1 -55.5 28 t-28.5 60zM780 649q-2 44 47.5 101.5t94.5 60.5q34 2 83 -24t56 -54q-30 -1 -73 -43.5t-78.5 -85t-45.5 -43.5q-29 -1 -55 28.5t-29 59.5z" />
<glyph unicode="&#xf8;" horiz-adv-x="813" d="M-20 141q0 97 48.5 197t130 183t181 148.5t208 102.5t204.5 37h16q117 107 162 104q14 -1 23.5 -3.5t16.5 -9t10.5 -10t10.5 -15t10 -15.5q-22 13 -133 -80l9 -6q6 -6 -5 -6q-12 0 -16 2l-76 -68l21 -14q33 -53 73 -80.5t97 -23.5q60 5 113.5 28t84 43t37.5 19 q-8 -25 -65 -65.5t-127 -63.5q-61 -19 -121 -19q-39 0 -62 9q-20 -97 -100.5 -200.5t-183 -180.5t-214 -126t-192.5 -48q-69 -91 -73 -127q0 -12 12 -15q27 -2 63 23q-37 -46 -67 -43q-15 2 -25.5 14t-9.5 31q3 41 49 125q-51 17 -80.5 59.5t-29.5 93.5zM127 43 q99 157 269.5 363.5t316.5 349.5q-92 -30 -190.5 -105.5t-174.5 -167t-134.5 -182.5t-82 -162t-4.5 -96zM182 33q91 19 243 175.5t257 315.5q-14 23 -23 58q-130 -136 -260.5 -286t-216.5 -263z" />
<glyph unicode="&#xf9;" horiz-adv-x="980" d="M-45 94q0 64 67.5 197t159.5 260q54 75 112.5 142t96.5 98q12 12 29 12q37 0 83 -47t46 -86q-2 -3 -3 -3t-8.5 3t-13.5 4q-12 1 -32.5 -14.5t-49 -48t-51 -60t-55.5 -70.5q-81 -109 -144 -221t-63 -154q67 28 190.5 129t215.5 191q9 9 157 164t217 209q13 10 31 10 q36 0 80.5 -46.5t44.5 -84.5q-2 -3 -2.5 -3t-8 3t-14.5 4q-20 0 -67 -47q-51 -58 -156 -197q-76 -102 -127 -199.5t-51 -140.5q45 14 116 63t163.5 130.5t140 125.5t125.5 118q6 5 11 2.5t6 -7.5t-1 -8q-78 -86 -159 -168t-176.5 -171t-176 -143t-123.5 -54q-18 0 -33 12 q-26 13 -49.5 43.5t-23.5 56.5q0 20 22 88q30 75 83 171t106 163q-23 -23 -70.5 -72t-76 -78t-74 -75t-76.5 -75.5t-71.5 -67t-71 -61.5t-62 -47.5t-57 -36.5t-45.5 -17h-17q-25 0 -59.5 34.5t-34.5 69.5zM436 1130q0 28 55 57.5t93 29.5q3 0 4.5 -1t1 -3t-2 -5t-2.5 -8 t-1 -10q0 -30 38 -74.5t97 -87t140.5 -72.5t158.5 -30q5 0 -2 -6t-30.5 -12.5t-59.5 -6.5q-91 0 -184 25.5t-158 61.5t-106.5 75t-41.5 67z" />
<glyph unicode="&#xfa;" horiz-adv-x="980" d="M-45 94q0 64 67.5 197t159.5 260q54 75 112.5 142t96.5 98q12 12 29 12q37 0 83 -47t46 -86q-2 -3 -3 -3t-8.5 3t-13.5 4q-12 1 -32.5 -14.5t-49 -48t-51 -60t-55.5 -70.5q-81 -109 -144 -221t-63 -154q67 28 190.5 129t215.5 191q9 9 157 164t217 209q13 10 31 10 q36 0 80.5 -46.5t44.5 -84.5q-2 -3 -2.5 -3t-8 3t-14.5 4q-20 0 -67 -47q-51 -58 -156 -197q-76 -102 -127 -199.5t-51 -140.5q45 14 116 63t163.5 130.5t140 125.5t125.5 118q6 5 11 2.5t6 -7.5t-1 -8q-78 -86 -159 -168t-176.5 -171t-176 -143t-123.5 -54q-18 0 -33 12 q-26 13 -49.5 43.5t-23.5 56.5q0 20 22 88q30 75 83 171t106 163q-23 -23 -70.5 -72t-76 -78t-74 -75t-76.5 -75.5t-71.5 -67t-71 -61.5t-62 -47.5t-57 -36.5t-45.5 -17h-17q-25 0 -59.5 34.5t-34.5 69.5zM471 920q-2 3 0 4q76 0 157.5 30t140 72.5t96.5 87.5t38 74 q0 5 -1 10t-2 7.5t-1.5 5t1 3t5.5 0.5q38 0 92 -29t54 -57t-41.5 -67t-106.5 -75t-158 -61.5t-184 -25.5q-72 0 -90 21z" />
<glyph unicode="&#xfb;" horiz-adv-x="980" d="M-45 94q0 64 67.5 197t159.5 260q54 75 112.5 142t96.5 98q12 12 29 12q37 0 83 -47t46 -86q-2 -3 -3 -3t-8.5 3t-13.5 4q-12 1 -32.5 -14.5t-49 -48t-51 -60t-55.5 -70.5q-81 -109 -144 -221t-63 -154q67 28 190.5 129t215.5 191q9 9 157 164t217 209q13 10 31 10 q36 0 80.5 -46.5t44.5 -84.5q-2 -3 -2.5 -3t-8 3t-14.5 4q-20 0 -67 -47q-51 -58 -156 -197q-76 -102 -127 -199.5t-51 -140.5q45 14 116 63t163.5 130.5t140 125.5t125.5 118q6 5 11 2.5t6 -7.5t-1 -8q-78 -86 -159 -168t-176.5 -171t-176 -143t-123.5 -54q-18 0 -33 12 q-26 13 -49.5 43.5t-23.5 56.5q0 20 22 88q30 75 83 171t106 163q-23 -23 -70.5 -72t-76 -78t-74 -75t-76.5 -75.5t-71.5 -67t-71 -61.5t-62 -47.5t-57 -36.5t-45.5 -17h-17q-25 0 -59.5 34.5t-34.5 69.5zM322 926q118 21 246.5 97.5t201.5 160.5q11 11 54.5 -14t39.5 -40 q-21 -61 13.5 -142.5t85.5 -100.5l1 -5q-2 -3 -10 -3q-20 -1 -52 10t-66.5 30.5t-64 52.5t-38.5 70q-88 -64 -197 -94t-190 -28q-13 -3 -24 6z" />
<glyph unicode="&#xfc;" horiz-adv-x="980" d="M-45 94q0 64 67.5 197t159.5 260q54 75 112.5 142t96.5 98q12 12 29 12q37 0 83 -47t46 -86q-2 -3 -3 -3t-8.5 3t-13.5 4q-12 1 -32.5 -14.5t-49 -48t-51 -60t-55.5 -70.5q-81 -109 -144 -221t-63 -154q67 28 190.5 129t215.5 191q9 9 157 164t217 209q13 10 31 10 q36 0 80.5 -46.5t44.5 -84.5q-2 -3 -2.5 -3t-8 3t-14.5 4q-20 0 -67 -47q-51 -58 -156 -197q-76 -102 -127 -199.5t-51 -140.5q45 14 116 63t163.5 130.5t140 125.5t125.5 118q6 5 11 2.5t6 -7.5t-1 -8q-78 -86 -159 -168t-176.5 -171t-176 -143t-123.5 -54q-18 0 -33 12 q-26 13 -49.5 43.5t-23.5 56.5q0 20 22 88q30 75 83 171t106 163q-23 -23 -70.5 -72t-76 -78t-74 -75t-76.5 -75.5t-71.5 -67t-71 -61.5t-62 -47.5t-57 -36.5t-45.5 -17h-17q-25 0 -59.5 34.5t-34.5 69.5zM506 993q-2 40 42.5 92t86.5 56q30 2 74.5 -21t52.5 -51 q-27 -1 -66.5 -40t-71.5 -78t-38 -40q-28 0 -51.5 27t-28.5 55zM766 1008q-3 40 41.5 91.5t85.5 55.5q29 2 74 -22.5t55 -49.5q-21 -1 -50.5 -25t-53.5 -52.5t-46.5 -52.5t-29.5 -25q-26 -1 -50 26t-26 54z" />
<glyph unicode="&#xfd;" horiz-adv-x="847" d="M-66 -813q8 59 89 238q63 141 155 317t237.5 406.5t278.5 383.5q-19 -19 -70.5 -72t-77.5 -79.5t-75.5 -76t-79.5 -78t-73.5 -69t-73.5 -64t-63 -48.5t-59 -38t-46 -17h-17q-25 0 -59.5 34.5t-34.5 69.5q0 63 68 196t160 261q51 73 107.5 137t96.5 96q13 13 29 13 q37 0 82 -47t45 -86q0 -4 -7 -1l-4 2t-5.5 2t-6.5 1q-12 1 -31.5 -13t-48.5 -47t-49.5 -57.5t-56.5 -69.5q-80 -110 -142.5 -221.5t-62.5 -153.5q68 28 192 130t212 190q27 25 171.5 171.5t211.5 199.5q14 12 28 12q37 0 83 -47.5t46 -85.5q0 -2 -1 -2.5t-3 0t-4.5 2t-7 2.5 t-8.5 2q-22 3 -72 -47q-25 -26 -49.5 -53.5t-55.5 -65.5t-46.5 -57.5t-56 -71t-50.5 -63.5q-74 -91 -205 -306t-223.5 -379.5t-179.5 -324.5q113 155 291.5 327t228.5 187l10 -12q-104 -82 -211.5 -202.5t-185 -230.5t-129.5 -200t-62 -129q-6 -6 -22 -6q-53 -5 -83 49 t-24 92zM455 909q-2 3 0 4q77 0 158.5 30.5t140 73t96 87t37.5 74.5q0 5 -1 10t-2 7t-1.5 4t1 2.5t5.5 0.5q39 0 92 -28.5t53 -55.5q0 -29 -41 -68t-106 -75t-157.5 -61t-184.5 -25q-72 0 -90 20z" />
<glyph unicode="&#xfe;" horiz-adv-x="899" d="M-545 -782q46 164 148.5 380.5t227 428.5t276.5 443.5t285 418t265 360.5q92 121 168 187q54 41 78 41q78 4 143 -57q29 -27 25 -36q-1 -3 -10 2q-55 25 -184 -131q-24 -30 -71 -91q-26 -33 -38 -48q-265 -338 -553 -776q90 98 229.5 209t270.5 183.5t180 55.5 q21 -8 58.5 -52t37.5 -66q0 -54 -43 -139.5t-115.5 -175.5t-158.5 -170t-183.5 -131.5t-177.5 -51.5q-63 0 -118.5 35t-55.5 84q0 10 8 11q3 0 3 -3q0 -17 24 -38t53 -21q59 0 138.5 55t154 136.5t142 171t110.5 164.5t51 110q-11 0 -51 -18.5t-110.5 -61.5t-153 -101.5 t-189 -151t-206.5 -198.5l-47 -76q-28 -47 -109.5 -179t-124 -206.5t-102 -186t-94 -203.5t-48.5 -173q-10 -38 -2.5 -66t41.5 -32q-73 -28 -128.5 22t-43.5 142z" />
<glyph unicode="&#xff;" horiz-adv-x="847" d="M-66 -813q8 59 89 238q63 141 155 317t237.5 406.5t278.5 383.5q-19 -19 -70.5 -72t-77.5 -79.5t-75.5 -76t-79.5 -78t-73.5 -69t-73.5 -64t-63 -48.5t-59 -38t-46 -17h-17q-25 0 -59.5 34.5t-34.5 69.5q0 63 68 196t160 261q51 73 107.5 137t96.5 96q13 13 29 13 q37 0 82 -47t45 -86q0 -4 -7 -1l-4 2t-5.5 2t-6.5 1q-12 1 -31.5 -13t-48.5 -47t-49.5 -57.5t-56.5 -69.5q-80 -110 -142.5 -221.5t-62.5 -153.5q68 28 192 130t212 190q27 25 171.5 171.5t211.5 199.5q14 12 28 12q37 0 83 -47.5t46 -85.5q0 -2 -1 -2.5t-3 0t-4.5 2t-7 2.5 t-8.5 2q-22 3 -72 -47q-25 -26 -49.5 -53.5t-55.5 -65.5t-46.5 -57.5t-56 -71t-50.5 -63.5q-74 -91 -205 -306t-223.5 -379.5t-179.5 -324.5q113 155 291.5 327t228.5 187l10 -12q-104 -82 -211.5 -202.5t-185 -230.5t-129.5 -200t-62 -129q-6 -6 -22 -6q-53 -5 -83 49 t-24 92zM514 995q-2 40 43 92t86 56q29 2 73 -21.5t54 -50.5q-21 -1 -50.5 -25.5t-54 -53.5t-46 -53.5t-27.5 -25.5q-29 0 -52 27t-26 55zM774 1010q-3 40 41 91.5t86 55.5q30 2 74.5 -22t54.5 -50q-27 -1 -67 -39t-72 -76.5t-39 -39.5q-28 -1 -52 26t-26 54z" />
<glyph unicode="&#x152;" horiz-adv-x="3088" d="M115 -92q3 151 77 324t192.5 331t273 306t314.5 255.5t321 172.5t288 65q95 0 157 -41.5t62 -110.5q0 -26 -12 -61q3 44 -47 71t-109 27q-108 0 -256 -67.5t-299 -178t-301 -257t-266 -298.5t-189.5 -309.5t-76.5 -283.5q0 -187 231 -187q103 0 243.5 53.5t291.5 149 t306.5 219.5t294 271.5t247 297t172 306t63.5 288.5q0 387 -420 387q-157 0 -318.5 -43t-298 -114.5t-263.5 -162t-224.5 -188.5t-170.5 -191.5t-111.5 -172t-38.5 -129.5q0 -15 2 -27t4.5 -20t8.5 -15.5t9 -11t13 -8.5t13 -6l15 -5l15 -5q-23 -13 -62 -13q-58 0 -103 49.5 t-44 120.5q2 94 65 206.5t169 222.5t253 213.5t309 182t346 126t355 47.5q94 0 177.5 -15t157.5 -48t130.5 -81.5t95 -120t51.5 -159.5q103 120 265 220t334 156t313 56q50 0 90.5 -4.5t84.5 -19.5t73 -40.5t46.5 -69.5t14.5 -104q-6 -113 -101 -231t-227 -192t-244 -74 q-34 0 -62.5 28.5t-25.5 59.5q1 29 55 76.5t91 60.5q-34 -34 -53 -75q-8 -19 0 -19q25 0 84 24.5t131.5 68t140 95t114 113t48.5 114.5q1 41 -20.5 70.5t-58.5 43t-73 19t-76 5.5q-98 0 -223 -47t-240 -122t-214 -160t-159 -169t-61 -141q-1 -52 31.5 -93t80 -64.5 t109.5 -38.5t114 -20t100 -5q13 0 -6 -33q-28 -48 -67 -62q-10 -4 -20 -4q-172 0 -416 -133t-436 -315q-13 -15 -82 -84q-146 -162 -149 -277q-2 -63 40 -101.5t128 -47.5q116 -13 292 40.5t358.5 145t376.5 209.5t349 227.5t273 204.5q3 0 5 -7.5t-1 -10.5 q-68 -65 -175.5 -154.5t-254.5 -200.5t-313.5 -216t-333 -192.5t-333.5 -140t-296 -49.5q-146 3 -233.5 85.5t-76.5 199.5q-208 -142 -419 -222.5t-402 -80.5q-181 0 -293 95t-110 241zM2019 567q243 122 404 138q-60 8 -136.5 40t-127.5 86q-61 -143 -140 -264z" />
<glyph unicode="&#x153;" horiz-adv-x="1236" d="M-20 141q0 97 48.5 197t130 183t181 148.5t208 102.5t204.5 37q84 0 125 -35q6 -6 -5 -6q-7 1 -25 3.5t-26 2.5q-170 0 -360.5 -175t-286.5 -357t-37 -207q43 -17 122 33.5t161 133.5t160 183q13 18 47 61q11 15 29.5 41.5t25.5 36.5q-9 17 -18.5 52.5t-4.5 48.5 q5 17 40.5 50t54.5 34q13 1 28 -7t19 -14l33 -47q110 81 217.5 124.5t173.5 43.5q31 0 78 -33t47 -71q0 -62 -106 -163.5t-256.5 -182t-260.5 -83.5q-74 -91 -82 -161q-2 -19 13.5 -29t48.5 -10q53 0 146.5 45.5t200.5 119t202 146t182 145.5q4 2 9 0t7 -5.5t0 -6.5 q-182 -167 -259 -231q-366 -303 -574 -303q-45 0 -91.5 38t-54.5 78q-91 -60 -181.5 -92.5t-158.5 -29.5q-68 4 -111.5 52t-43.5 109zM756 317q62 7 154.5 64.5t172 129t138.5 140t63 97.5q-80 -26 -167.5 -82.5t-157.5 -121t-123 -124t-80 -103.5z" />
<glyph unicode="&#x178;" horiz-adv-x="2189" d="M166 582q-6 83 53 195.5t161 229t243.5 232t293.5 207.5t318.5 153.5t310.5 71.5q108 8 189.5 -44.5t87.5 -160.5q5 -72 -40.5 -179t-116.5 -214.5t-154.5 -224.5t-155.5 -213.5t-118.5 -179t-43.5 -121.5q3 -31 72 -23q89 9 256.5 127.5t355.5 297.5t350 372 q69 82 148.5 182t129.5 164t99.5 123.5t84 88t58.5 28.5q59 0 109.5 -41.5t52.5 -75.5q-6 5 -11 8.5t-10.5 4.5t-8.5 1.5t-8.5 0t-6.5 -0.5q-36 -2 -111.5 -93.5t-175 -244t-201 -315t-220 -346.5t-201.5 -299q-55 -78 -70 -103q183 -31 258 -92q0 -2 -2 -2q-148 51 -272 70 q-88 -124 -212.5 -261.5t-279.5 -275t-312.5 -247.5t-322.5 -179t-299 -69q-234 0 -247 178q-7 90 40 191t132.5 196t208.5 183.5t263 157t302 114t319 55.5q86 4 133 4q53 0 76 -2q308 411 508 752q-97 -105 -223 -223.5t-264 -233t-266 -191.5t-203 -82 q-71 -4 -119.5 43.5t-50.5 88.5q-5 76 61.5 203t164.5 261.5t196 265t165.5 241.5t63.5 163q-4 47 -24.5 76.5t-46 37.5t-53.5 11.5t-48 -0.5q-123 -7 -270 -79t-279 -177t-258 -229.5t-216.5 -237.5t-145 -198.5t-52.5 -114.5q1 -20 16.5 -29t34.5 -4q38 0 66 14 q-18 -29 -54.5 -53.5t-72.5 -28.5q-47 -3 -89.5 25t-45.5 70zM276 -645q3 -48 41 -72.5t91 -21.5q139 9 316.5 99t346 224.5t320.5 289.5t262 304q-14 2 -43 2t-52 -1l-22 -1q-119 0 -263.5 -36t-284.5 -95.5t-273 -142.5t-231.5 -172.5t-156 -188.5t-51.5 -188zM1962 1659 q-3 39 41.5 91t85.5 56q31 2 75.5 -21.5t53.5 -49.5q-27 -1 -66.5 -40t-72.5 -78t-41 -40q-27 0 -50 27.5t-26 54.5zM2222 1642q-3 40 41 92t86 56q30 2 74.5 -22t54.5 -50q-28 -1 -68.5 -39t-73 -76.5t-38.5 -39.5q-26 -1 -49.5 25t-26.5 54z" />
<glyph unicode="&#x2c6;" horiz-adv-x="641" d="M127 872q118 21 246.5 97.5t201.5 160.5q8 11 52.5 -13.5t38.5 -39.5q-19 -62 15.5 -143t86.5 -100q6 -9 -8 -9q-46 -2 -120.5 52.5t-94.5 126.5q-88 -65 -203 -101.5t-192 -36.5q-15 1 -23 6z" />
<glyph unicode="&#x2dc;" horiz-adv-x="942" d="M473 879q-18 66 39 130t150 64q39 0 84.5 -20t87 -44.5t61.5 -29.5q27 -8 61 -8q66 0 121 34t90 78q-14 -29 -40.5 -62.5t-63 -67.5t-84.5 -53t-94 -13q-52 7 -114 28.5t-87 26.5q-42 10 -84 10q-91 0 -127 -73z" />
<glyph unicode="&#x2000;" horiz-adv-x="1107" />
<glyph unicode="&#x2001;" horiz-adv-x="2214" />
<glyph unicode="&#x2002;" horiz-adv-x="1107" />
<glyph unicode="&#x2003;" horiz-adv-x="2214" />
<glyph unicode="&#x2004;" horiz-adv-x="738" />
<glyph unicode="&#x2005;" horiz-adv-x="553" />
<glyph unicode="&#x2006;" horiz-adv-x="369" />
<glyph unicode="&#x2007;" horiz-adv-x="369" />
<glyph unicode="&#x2008;" horiz-adv-x="276" />
<glyph unicode="&#x2009;" horiz-adv-x="442" />
<glyph unicode="&#x200a;" horiz-adv-x="123" />
<glyph unicode="&#x2010;" horiz-adv-x="1136" d="M381 530q0 35 121 50.5t250 15.5q83 0 189 -13.5t178.5 -32t72.5 -30.5q0 -6 -4 -6q-155 0 -326.5 -24t-282 -48t-118.5 -24q-33 0 -56.5 38.5t-23.5 73.5z" />
<glyph unicode="&#x2011;" horiz-adv-x="1136" d="M381 530q0 35 121 50.5t250 15.5q83 0 189 -13.5t178.5 -32t72.5 -30.5q0 -6 -4 -6q-155 0 -326.5 -24t-282 -48t-118.5 -24q-33 0 -56.5 38.5t-23.5 73.5z" />
<glyph unicode="&#x2012;" horiz-adv-x="1136" d="M381 530q0 35 121 50.5t250 15.5q83 0 189 -13.5t178.5 -32t72.5 -30.5q0 -6 -4 -6q-155 0 -326.5 -24t-282 -48t-118.5 -24q-33 0 -56.5 38.5t-23.5 73.5z" />
<glyph unicode="&#x2013;" horiz-adv-x="1349" d="M381 530q0 35 153 50.5t315 15.5q105 0 239 -13.5t225.5 -32t91.5 -30.5q0 -6 -5 -6q-196 0 -412.5 -24t-356 -48t-149.5 -24q-42 0 -71.5 38.5t-29.5 73.5z" />
<glyph unicode="&#x2014;" horiz-adv-x="2373" d="M381 530q0 35 305.5 50.5t631.5 15.5q209 0 477 -13.5t451 -32t183 -30.5q0 -6 -10 -6q-392 0 -825 -24t-712 -48t-299 -24q-83 0 -142.5 38.5t-59.5 73.5z" />
<glyph unicode="&#x2018;" horiz-adv-x="708" d="M541 1348q0 22 48 73.5t116 105t151.5 94t144.5 40.5q5 0 6.5 -3.5t-3.5 -8.5q-39 -19 -121.5 -109t-147.5 -176.5t-65 -101.5q0 -7 -9 -13t-18 -6q-34 0 -68 37t-34 68z" />
<glyph unicode="&#x2019;" horiz-adv-x="921" d="M609 1246.5q-1 3.5 3 8.5q39 19 121.5 109t147.5 176.5t65 101.5q0 7 9 13t18 6q33 0 66.5 -37t33.5 -68t-77 -105.5t-189.5 -141t-192.5 -66.5q-4 0 -5 3.5z" />
<glyph unicode="&#x201c;" horiz-adv-x="798" d="M489 1296q0 31 72.5 101.5t158 128t120.5 57.5q12 0 12 -8q-25 -16 -118 -155t-93 -173q0 -4 -6 -4q-35 0 -90.5 14.5t-55.5 38.5zM723 1296q0 31 72 101.5t157.5 128t120.5 57.5q14 0 14 -8q-25 -16 -119 -155t-94 -173q0 -4 -4 -4q-36 0 -91.5 14.5t-55.5 38.5z" />
<glyph unicode="&#x201d;" horiz-adv-x="811" d="M424 1251q25 16 118 155t93 173q0 4 6 4q37 0 92 -14.5t55 -38.5q0 -31 -72 -101.5t-158 -128t-122 -57.5q-12 0 -12 8zM659 1251q26 15 118.5 154.5t92.5 173.5q0 4 4 4q37 0 93.5 -14.5t56.5 -38.5q0 -31 -72 -101.5t-158 -128t-122 -57.5q-13 0 -13 8z" />
<glyph unicode="&#x2022;" horiz-adv-x="942" d="M422 379q0 65 62 132t134 67q26 0 42 -18.5t16 -47.5q0 -68 -60.5 -135.5t-130.5 -67.5q-31 0 -47 19t-16 51z" />
<glyph unicode="&#x2026;" horiz-adv-x="1662" d="M223 68q-3 43 46 100t96 61q34 2 82 -23.5t57 -53.5q-23 -1 -55.5 -28t-59 -59.5t-50.5 -59.5t-32 -28q-29 -1 -55 30t-29 61zM666 68q-3 43 46.5 100t94.5 61q34 2 82 -23.5t57 -53.5q-22 -1 -54.5 -28t-58.5 -59.5t-50 -59.5t-31 -28q-30 -1 -55.5 29.5t-30.5 61.5z M1110 68q-3 43 45.5 100t95.5 61q33 2 82 -23.5t58 -53.5q-23 -1 -56 -28t-59.5 -59.5t-51 -59.5t-32.5 -28q-29 -1 -54.5 30t-27.5 61z" />
<glyph unicode="&#x202f;" horiz-adv-x="442" />
<glyph unicode="&#x205f;" horiz-adv-x="553" />
<glyph unicode="&#x20ac;" horiz-adv-x="1943" d="M293 631q0 11 9 22t27.5 21t38 18.5t49.5 17.5t52 15.5t54.5 14t49.5 11t44.5 9t31.5 6.5q123 159 347.5 318.5t471.5 263.5t422 104q109 0 179.5 -46t70.5 -120q0 -87 -63 -179.5t-154.5 -151t-171.5 -58.5q-41 0 -66.5 19.5t-25.5 46.5q0 28 33 66.5t90 70.5 q-1 -1 -5 -6q-58 -71 -34 -72q39 0 115.5 44t143 113.5t66.5 127.5q0 51 -44 79.5t-111 28.5q-121 0 -267.5 -56.5t-283.5 -148t-259 -196.5t-216 -213q156 18 317 18q219 0 402 -21t264.5 -43t81.5 -34q0 -2 -8 -2q-4 0 -49 5.5t-137 11t-210 5.5q-183 0 -405 -21t-359 -48 q-38 -43 -90 -148q346 64 658 64q107 0 201 -11t138 -22.5t44 -17.5q0 -1 -18 1t-59.5 4.5t-84.5 2.5q-201 0 -465.5 -47t-476.5 -119q-25 -98 -25 -133q0 -126 56 -173.5t169 -47.5q106 0 226.5 34.5t228.5 89.5t213.5 122t190.5 134t150.5 122t103 89.5t38.5 34.5h3 q0 -16 -56.5 -76t-148.5 -142t-216.5 -173t-252 -168t-265 -127.5t-245.5 -50.5q-183 0 -275 91t-92 239q0 45 4 63q-1 0 -14.5 -4t-28.5 -4q-14 0 -24.5 22t-10.5 44q0 49 31.5 72.5t91.5 37.5q26 72 66 141q-18 0 -86 -28q5 -12 43 -29q-45 -20 -115 -20q-41 0 -69.5 31 t-28.5 61z" />
<glyph unicode="&#x2122;" horiz-adv-x="1726" d="M444 735q0 61 87 220t189 293t140 134q27 0 52.5 -17t25.5 -30q-10 5 -86.5 -88.5t-163 -208t-161.5 -211t-81 -96.5q-2 0 -2 4zM463 1321q0 62 94.5 115.5t222.5 81.5t244 28q120 0 229 -12.5t178.5 -31t121.5 -36.5t75 -30l23 -13q-7 1 -48 10.5t-65.5 13.5t-70.5 10.5 t-99.5 9.5t-116.5 3q-143 0 -265 -18t-195.5 -43t-126 -53.5t-73 -48t-20.5 -27.5q0 -4 4.5 -6.5t13.5 -3t15.5 -1t16 0t10.5 0.5q-5 -7 -33 -15.5t-55 -7.5q-31 2 -55.5 20.5t-24.5 53.5zM600 825q80 69 160.5 153t136 150.5t102.5 124t78.5 89.5t46.5 32q68 0 68 -31 q0 -3 -17 -47t-48.5 -112.5t-61.5 -118.5q76 58 196.5 175.5t120.5 145.5q0 13 32 7q45 -8 60 -40q5 -10 5 -20q0 -8 -72 -139t-163.5 -265t-131.5 -134q-4 0 -4 6l81 169q135 285 138 286q1 0 0 -3q-44 -46 -149.5 -158.5t-165.5 -172.5t-92 -84q-12 -10 -34 13t-22 38 q0 2 30 52.5t69.5 123.5t58.5 121q-106 -117 -202 -204t-148.5 -123t-69.5 -36q0 1 -2 2z" />
<glyph unicode="&#x25fc;" horiz-adv-x="860" d="M0 0v860h860v-860h-860z" />
</font>
</defs>
</svg>
